<?xml version="1.0" standalone="no"?>
<!DOCTYPE svg PUBLIC "-//W3C//DTD SVG 1.1//EN" "http://www.w3.org/Graphics/SVG/1.1/DTD/svg11.dtd" >
<svg>
<metadata>
Created by FontForge 20090622 at Wed Jul 13 16:03:54 2016
 By deploy user
Copyright&#194;&#169; 2007 Linotype GmbH, www.linotype.com. All rights reserved.
</metadata>
<defs>
<font id="Avenir-Book" horiz-adv-x="556" >
  <font-face 
    font-family="Avenir Book"
    font-weight="400"
    font-stretch="normal"
    units-per-em="1000"
    panose-1="2 0 5 3 2 0 0 2 0 3"
    ascent="800"
    descent="-200"
    x-height="468"
    cap-height="708"
    bbox="-167 -288 1000 940"
    underline-thickness="50"
    underline-position="-100"
    unicode-range="U+0020-U+FB02"
  />
<missing-glyph horiz-adv-x="512" 
d="M222 117v67h56v-67h-56zM225 234l-2 17q0 56 13 81q7 13 18 27.5t28 31.5q16 15 26 26.5t15 21t7 18t2 17.5q0 36 -22.5 60.5t-53.5 24.5t-53.5 -22t-28.5 -73l-50 8q7 72 44 104.5t91 32.5t89 -35.5t35 -95.5q0 -32 -12.5 -58.5t-50.5 -61.5q-37 -33 -43 -52
q-6 -20 -6 -72h-46zM462 50v617h-412v-617h412zM512 718v-718h-512v718h512z" />
    <glyph glyph-name=".notdef" horiz-adv-x="512" 
d="M222 117v67h56v-67h-56zM225 234l-2 17q0 56 13 81q7 13 18 27.5t28 31.5q16 15 26 26.5t15 21t7 18t2 17.5q0 36 -22.5 60.5t-53.5 24.5t-53.5 -22t-28.5 -73l-50 8q7 72 44 104.5t91 32.5t89 -35.5t35 -95.5q0 -32 -12.5 -58.5t-50.5 -61.5q-37 -33 -43 -52
q-6 -20 -6 -72h-46zM462 50v617h-412v-617h412zM512 718v-718h-512v718h512z" />
    <glyph glyph-name=".null" horiz-adv-x="0" 
 />
    <glyph glyph-name="nonmarkingreturn" horiz-adv-x="333" 
 />
    <glyph glyph-name="space" unicode=" " horiz-adv-x="278" 
 />
    <glyph glyph-name="exclam" unicode="!" horiz-adv-x="278" 
d="M193 48q0 -21 -15 -37.5t-39 -16.5t-39 16.5t-15 37.5t15 37.5t39 16.5t39 -16.5t15 -37.5zM175 192h-72v516h72v-516z" />
    <glyph glyph-name="quotedbl" unicode="&#x22;" horiz-adv-x="519" 
d="M302 708h60v-235h-60v235zM157 708h60v-235h-60v235z" />
    <glyph glyph-name="numbersign" unicode="#" 
d="M206 274h133l22 162h-133zM137 214h-102v60h110l22 162h-108v60h117l29 212h61l-29 -212h133l29 212h61l-29 -212h90v-60h-99l-22 -162h95v-60h-103l-30 -214h-61l30 214h-133l-30 -214h-61z" />
    <glyph glyph-name="dollar" unicode="$" 
d="M254 328q-34 10 -68.5 25.5t-62 38.5t-45 56t-17.5 79q0 43 16.5 78t43.5 60t61.5 39.5t71.5 17.5v70h48v-68q36 0 64 -7t50 -19t39.5 -27.5t31.5 -31.5l-56 -48q-21 35 -57 51.5t-72 15.5v-267q37 -13 73 -29.5t65 -41t47 -59t18 -83.5q0 -42 -15.5 -76.5t-43 -59.5
t-64.5 -40t-80 -18v-68h-48v66q-70 4 -125.5 35.5t-85.5 74.5l60 43q16 -21 36 -37t40 -27t39.5 -16.5t35.5 -5.5v279zM302 50q19 0 42 6t42.5 21t33 39.5t13.5 61.5q1 51 -36.5 84.5t-94.5 51.5v-264zM254 657q-27 -2 -49 -12.5t-38 -27.5t-25 -39.5t-9 -48.5t9.5 -45
t26 -33.5t38.5 -25.5t47 -20v252z" />
    <glyph glyph-name="percent" unicode="%" horiz-adv-x="833" 
d="M217 -31l-52 27l451 743l51 -27zM735 163q0 25 -9.5 46t-25 36.5t-36.5 24t-45 8.5t-45 -8.5t-36.5 -24t-25 -36.5t-9.5 -46t9.5 -46t25 -36.5t36.5 -24t45 -8.5t45 8.5t36.5 24t25 36.5t9.5 46zM795 163q0 -37 -13.5 -69t-37.5 -55.5t-56 -37t-69 -13.5t-69 13.5t-56 37
t-37.5 55.5t-13.5 69t13.5 69t37.5 55.5t56 37t69 13.5t69 -13.5t56 -37t37.5 -55.5t13.5 -69zM330 545q0 25 -9.5 46t-25 36.5t-36.5 24t-45 8.5t-45 -8.5t-36.5 -24t-25 -36.5t-9.5 -46t9.5 -46t25 -36.5t36.5 -24t45 -8.5t45 8.5t36.5 24t25 36.5t9.5 46zM390 545
q0 -37 -13.5 -69t-37.5 -55.5t-56 -37t-69 -13.5t-69 13.5t-56 37t-37.5 55.5t-13.5 69t13.5 69t37.5 55.5t56 37t69 13.5t69 -13.5t56 -37t37.5 -55.5t13.5 -69z" />
    <glyph glyph-name="ampersand" unicode="&#x26;" horiz-adv-x="704" 
d="M254 348q-35 -20 -59.5 -37.5t-39.5 -37t-22 -41.5t-7 -49q0 -30 12 -55t32 -42.5t46 -27.5t55 -10t52.5 8t44 22t38.5 33t35 41zM402 567q0 42 -28.5 67.5t-69.5 25.5q-45 0 -75.5 -28t-30.5 -76q0 -18 8.5 -37.5t20 -36.5t24 -31.5t21.5 -21.5q20 12 43 24.5t42.5 28.5
t32 37t12.5 48zM529 164l159 -164h-102l-100 104q-44 -57 -94 -89.5t-122 -32.5q-44 0 -84.5 13.5t-71 39.5t-48.5 63.5t-18 85.5q0 39 13 71t35.5 57.5t51.5 45.5t61 35q-32 34 -57.5 75.5t-25.5 90.5q0 40 13.5 71t37.5 52.5t56 32.5t70 11q35 0 66 -10.5t54.5 -30.5
t37 -49.5t13.5 -68.5q0 -35 -14 -62.5t-36.5 -50t-50.5 -40t-55 -31.5l163 -168l97 168h81z" />
    <glyph glyph-name="quotesingle" unicode="'" horiz-adv-x="260" 
d="M100 708h60v-235h-60v235z" />
    <glyph glyph-name="parenleft" unicode="(" horiz-adv-x="260" 
d="M252 702q-32 -51 -56.5 -99t-41.5 -97.5t-25.5 -102.5t-8.5 -115t8.5 -114t24.5 -100t40 -95t55 -99l-53 -40q-67 94 -104 210t-37 238q0 116 36.5 233t108.5 215z" />
    <glyph glyph-name="parenright" unicode=")" horiz-adv-x="260" 
d="M8 -126q32 51 56.5 99t41.5 97.5t25.5 102.5t8.5 115t-8.5 114t-24.5 100t-40 95t-55 99l53 40q67 -94 104 -210t37 -238q0 -116 -36.5 -233t-108.5 -215z" />
    <glyph glyph-name="asterisk" unicode="*" horiz-adv-x="444" 
d="M252 565l140 45l21 -56l-141 -45l90 -121l-48 -36l-92 124l-92 -124l-48 36l90 121l-141 45l21 56l140 -45v143h60v-143z" />
    <glyph glyph-name="plus" unicode="+" horiz-adv-x="666" 
d="M363 333h225v-60h-225v-225h-60v225h-225v60h225v225h60v-225z" />
    <glyph glyph-name="comma" unicode="," horiz-adv-x="278" 
d="M132 -140h-67l67 235h81z" />
    <glyph glyph-name="hyphen" unicode="-" horiz-adv-x="333" 
d="M295 207h-257v66h257v-66z" />
    <glyph glyph-name="period" unicode="." horiz-adv-x="278" 
d="M193 48q0 -21 -15 -37.5t-39 -16.5t-39 16.5t-15 37.5t15 37.5t39 16.5t39 -16.5t15 -37.5z" />
    <glyph glyph-name="slash" unicode="/" horiz-adv-x="370" 
d="M63 -18l-58 19l303 725l57 -20z" />
    <glyph glyph-name="zero" unicode="0" 
d="M278 654q-58 0 -91.5 -31t-50.5 -77t-21.5 -98t-4.5 -94t4.5 -94t21.5 -98t50.5 -77t91.5 -31t91.5 31t50.5 77t21.5 98t4.5 94t-4.5 94t-21.5 98t-50.5 77t-91.5 31zM278 720q76 0 123 -35t73 -89t35 -118.5t9 -123.5t-9 -123.5t-35 -118.5t-73 -89t-123 -35t-123 35
t-73 89t-35 118.5t-9 123.5t9 123.5t35 118.5t73 89t123 35z" />
    <glyph glyph-name="one" unicode="1" 
d="M348 0h-72v618l-127 -112l-45 54l180 148h64v-708z" />
    <glyph glyph-name="two" unicode="2" 
d="M498 0h-450v83l282 287q16 16 32 34t29 38t21 42t8 46q0 29 -10.5 52t-29.5 39t-44 24.5t-53 8.5q-54 0 -92 -30t-49 -81l-76 8q15 79 72.5 124t139.5 45q43 0 81.5 -11.5t68 -34.5t47 -57.5t17.5 -80.5q0 -41 -12.5 -75t-32.5 -64t-45.5 -57l-52.5 -53l-223 -221h372
v-66z" />
    <glyph glyph-name="three" unicode="3" 
d="M204 404h37q31 0 59.5 7t49.5 22.5t33.5 40.5t12.5 60q0 57 -34.5 88.5t-96.5 31.5q-45 0 -79 -20t-56 -58l-63 32q32 57 81.5 84.5t114.5 27.5q42 0 79 -12t65 -35.5t44.5 -58t16.5 -78.5q0 -29 -9.5 -55t-26 -47t-38.5 -36.5t-46 -23.5l3 -2q30 -6 55 -22.5t43 -40.5
t28 -54t10 -63q0 -49 -18 -87t-49 -64t-72 -39.5t-87 -13.5q-78 0 -136 34t-87 109l76 23q18 -51 53.5 -75.5t99.5 -24.5q30 0 57 10t47.5 28.5t32 44.5t11.5 57q0 40 -15 67.5t-40 44.5t-57.5 24.5t-67.5 7.5h-31v66z" />
    <glyph glyph-name="four" unicode="4" 
d="M344 636h-2l-244 -402h246v402zM416 234h102v-66h-102v-168h-72v168h-306v82l286 458h92v-474z" />
    <glyph glyph-name="five" unicode="5" 
d="M465 642h-290l-4 -213q23 9 47 13t48 4q50 0 91 -17t70.5 -47.5t46 -72t16.5 -90.5q0 -51 -18 -93.5t-50 -73t-75.5 -47.5t-94.5 -17q-67 0 -121 32t-83 94l71 31q20 -42 56 -66.5t83 -24.5q34 0 63 12.5t50.5 33.5t34 50t12.5 62q0 37 -13 68t-36 53.5t-55 34.5t-70 12
t-75.5 -10.5t-71.5 -28.5l7 367h361v-66z" />
    <glyph glyph-name="six" unicode="6" 
d="M120 207q0 -34 11.5 -62t32.5 -48.5t50 -31.5t64 -11t64 11t50 31.5t32.5 48.5t11.5 62t-11.5 62t-32.5 48t-50 31.5t-64 11.5t-64 -11.5t-50 -31.5t-32.5 -48t-11.5 -62zM192 404l2 -2q17 12 45.5 18t52.5 6q46 0 85.5 -16.5t68.5 -45.5t45.5 -69t16.5 -88
q0 -49 -17 -89t-48 -69t-73 -45t-92 -16t-92 16t-73 45t-48 69t-17 89q0 59 17.5 103t43.5 87l191 311h85z" />
    <glyph glyph-name="seven" unicode="7" 
d="M474 642l-285 -642h-81l291 642h-345v66h420v-66z" />
    <glyph glyph-name="eight" unicode="8" 
d="M430 199q0 31 -11 57.5t-30.5 46t-48 30.5t-62.5 11q-35 0 -63 -11t-47.5 -30.5t-30.5 -46t-11 -57.5t11 -57.5t30.5 -46t47.5 -30.5t63 -11q34 0 62.5 11t48 30.5t30.5 46t11 57.5zM404 529q0 27 -9.5 50t-26.5 39.5t-40 26t-50 9.5t-50 -9.5t-40 -26t-26.5 -39.5
t-9.5 -50t9.5 -50t26.5 -39.5t40 -26t50 -9.5t50 9.5t40 26t26.5 39.5t9.5 50zM186 377q-23 8 -42.5 23.5t-33.5 36.5t-22 46t-8 52q0 42 16 76.5t43 58.5t63 37t76 13t76 -13t63 -37t43 -58.5t16 -76.5q0 -27 -8 -52t-22 -46t-33.5 -36.5t-42.5 -23.5v-2q60 -16 96 -66
t36 -120q0 -46 -18.5 -83t-49 -63.5t-71 -40.5t-85.5 -14t-85.5 14t-71 40.5t-49 63.5t-18.5 83q0 70 36 120t96 66v2z" />
    <glyph glyph-name="nine" unicode="9" 
d="M436 501q0 34 -11.5 62t-32.5 48t-50 31.5t-64 11.5t-64 -11.5t-50 -31.5t-32.5 -48t-11.5 -62t11.5 -62t32.5 -48.5t50 -31.5t64 -11t64 11t50 31.5t32.5 48.5t11.5 62zM364 304l-2 2q-17 -12 -45.5 -18t-52.5 -6q-46 0 -85.5 16.5t-68.5 45.5t-45.5 69t-16.5 88
q0 49 17 89t48 69t73 45t92 16t92 -16t73 -45t48 -69t17 -89q0 -59 -17.5 -103t-43.5 -87l-191 -311h-85z" />
    <glyph glyph-name="colon" unicode=":" horiz-adv-x="278" 
d="M193 48q0 -21 -15 -37.5t-39 -16.5t-39 16.5t-15 37.5t15 37.5t39 16.5t39 -16.5t15 -37.5zM193 419q0 -21 -15 -37.5t-39 -16.5t-39 16.5t-15 37.5t15 37.5t39 16.5t39 -16.5t15 -37.5z" />
    <glyph glyph-name="semicolon" unicode=";" horiz-adv-x="278" 
d="M202 419q0 -21 -15 -37.5t-39 -16.5t-39 16.5t-15 37.5t15 37.5t39 16.5t39 -16.5t15 -37.5zM132 -140h-67l67 235h81z" />
    <glyph glyph-name="less" unicode="&#x3c;" horiz-adv-x="666" 
d="M588 504l-429 -201l429 -201v-60l-510 238v46l510 238v-60z" />
    <glyph glyph-name="equal" unicode="=" horiz-adv-x="666" 
d="M588 258v-60h-510v60h510zM588 408v-60h-510v60h510z" />
    <glyph glyph-name="greater" unicode="&#x3e;" horiz-adv-x="666" 
d="M78 564l510 -238v-46l-510 -238v60l429 201l-429 201v60z" />
    <glyph glyph-name="question" unicode="?" horiz-adv-x="482" 
d="M300 48q0 -21 -15 -37.5t-39 -16.5t-39 16.5t-15 37.5t15 37.5t39 16.5t39 -16.5t15 -37.5zM276 192h-72v83q0 27 12.5 49.5t30.5 42t39 37.5t38.5 38.5t29.5 43.5t12 53q0 51 -32.5 83t-84.5 32q-51 0 -84.5 -30t-42.5 -79l-75 9q6 39 23.5 70t44 52.5t60.5 32.5t73 11
q40 0 75 -11.5t60.5 -33.5t40 -55t14.5 -75t-12 -71t-30 -50.5t-39 -38.5t-39 -36.5t-30 -44.5t-12 -61v-51z" />
    <glyph glyph-name="at" unicode="@" horiz-adv-x="800" 
d="M560 550h56l-84 -282q-4 -13 -6.5 -26.5t-2.5 -24.5q0 -8 6 -14t17 -6q26 0 53 18.5t48.5 49t35.5 69.5t14 81q0 57 -24 104t-63.5 81t-90 53t-102.5 19q-65 0 -122 -26.5t-99.5 -70.5t-67.5 -101.5t-25 -119.5t25 -119.5t67.5 -101.5t99.5 -70.5t122 -26.5
q75 0 143.5 32t109.5 89h63q-24 -41 -58 -73.5t-75 -55t-87.5 -34.5t-95.5 -12q-77 0 -145 28.5t-119 79t-80.5 118.5t-29.5 146t29.5 146t80.5 118.5t119 79t145 28.5q69 0 131 -22.5t108.5 -63.5t73.5 -97.5t27 -123.5q0 -65 -23.5 -117t-58 -89t-74.5 -56.5t-74 -19.5
q-30 0 -48 14t-22 45h-2q-23 -24 -52 -41.5t-73 -17.5q-64 0 -103 41.5t-39 108.5q0 52 16.5 102.5t47.5 90.5t74 64.5t96 24.5q37 0 67.5 -18t46.5 -64h2zM503 409q0 21 -7 39.5t-18 32t-25.5 21t-30.5 7.5q-36 -2 -67 -22.5t-53.5 -52t-35 -69t-12.5 -72.5q0 -42 26.5 -69
t67.5 -27q33 0 61 21.5t49 53.5t33 69t12 68z" />
    <glyph glyph-name="A" unicode="A" horiz-adv-x="686" 
d="M189 252h307l-153 372zM84 0h-84l308 708h70l308 -708h-84l-78 186h-362z" />
    <glyph glyph-name="B" unicode="B" horiz-adv-x="630" 
d="M168 66h138q39 0 73 8t59 24.5t39.5 41.5t14.5 60q0 70 -45 104t-132 34h-147v-272zM168 398h145q26 0 51.5 6.5t46 21.5t33.5 38.5t13 57.5q0 11 -4.5 31t-20 40t-45.5 34.5t-81 14.5h-138v-244zM96 708h211q44 0 85 -9t73 -30t51 -55t19 -84q0 -58 -32.5 -99.5
t-92.5 -55.5v-2q75 -6 117.5 -52.5t42.5 -124.5q0 -17 -8.5 -50t-35.5 -65.5t-78 -56.5t-136 -24h-216v708z" />
    <glyph glyph-name="C" unicode="C" horiz-adv-x="704" 
d="M679 112q-18 -27 -44.5 -51t-60.5 -41.5t-73.5 -27.5t-83.5 -10q-79 0 -146.5 28t-117 77.5t-77.5 117.5t-28 149t28 149t77.5 117.5t117 77.5t146.5 28q66 0 132 -26t113 -86l-63 -47q-11 17 -30 34t-43.5 30t-52.5 21t-56 8q-68 0 -122 -25t-91.5 -67t-57.5 -97.5
t-20 -116.5t20 -116.5t57.5 -97.5t91.5 -67t122 -25q28 0 55.5 5t54 17t50 32.5t43.5 51.5z" />
    <glyph glyph-name="D" unicode="D" horiz-adv-x="741" 
d="M158 66h140q81 0 140.5 24.5t99 65t58.5 92t19 106.5t-19 106.5t-58.5 92t-99 65t-140.5 24.5h-140v-576zM86 708h235q66 0 132.5 -22t120 -66.5t86.5 -111t33 -154.5q0 -89 -33 -155t-86.5 -110.5t-120 -66.5t-132.5 -22h-235v708z" />
    <glyph glyph-name="E" unicode="E" horiz-adv-x="593" 
d="M168 66h379v-66h-451v708h439v-66h-367v-241h343v-66h-343v-269z" />
    <glyph glyph-name="F" unicode="F" 
d="M168 0h-72v708h427v-66h-355v-241h330v-66h-330v-335z" />
    <glyph glyph-name="G" unicode="G" horiz-adv-x="778" 
d="M619 578q-36 38 -86 60t-116 22q-68 0 -122 -25t-91.5 -67t-57.5 -97.5t-20 -116.5t20 -116.5t57.5 -97.5t91.5 -67t122 -25q55 0 105.5 13.5t90.5 36.5v237h-169v66h241v-347q-60 -35 -131.5 -53.5t-136.5 -18.5q-79 0 -146.5 28t-117 77.5t-77.5 117.5t-28 149t28 149
t77.5 117.5t117 77.5t146.5 28q85 0 146.5 -23.5t109.5 -71.5z" />
    <glyph glyph-name="H" unicode="H" horiz-adv-x="722" 
d="M96 708h72v-307h386v307h72v-708h-72v335h-386v-335h-72v708z" />
    <glyph glyph-name="I" unicode="I" horiz-adv-x="264" 
d="M168 0h-72v708h72v-708z" />
    <glyph glyph-name="J" unicode="J" horiz-adv-x="482" 
d="M87 145q10 -45 37 -71t75 -26q39 0 63.5 15.5t38 40t18.5 56t5 64.5v484h72v-514q0 -36 -9.5 -73.5t-33 -68t-61.5 -50.5t-95 -20q-73 0 -122 37.5t-61 110.5z" />
    <glyph glyph-name="K" unicode="K" horiz-adv-x="630" 
d="M168 401h1h9l333 307h103l-357 -321l377 -387h-106l-348 365h-11h-1v-365h-72v708h72v-307z" />
    <glyph glyph-name="L" unicode="L" horiz-adv-x="500" 
d="M168 66h330v-66h-402v708h72v-642z" />
    <glyph glyph-name="M" unicode="M" horiz-adv-x="890" 
d="M445 132l239 576h110v-708h-72v612h-2l-256 -612h-38l-256 612h-2v-612h-72v708h110z" />
    <glyph glyph-name="N" unicode="N" horiz-adv-x="778" 
d="M608 108h2v600h72v-708h-90l-422 606h-2v-606h-72v708h90z" />
    <glyph glyph-name="O" unicode="O" horiz-adv-x="834" 
d="M708 354q0 61 -20 116.5t-57.5 97.5t-91.5 67t-122 25t-122 -25t-91.5 -67t-57.5 -97.5t-20 -116.5t20 -116.5t57.5 -97.5t91.5 -67t122 -25t122 25t91.5 67t57.5 97.5t20 116.5zM786 354q0 -81 -28 -149t-77.5 -117.5t-117 -77.5t-146.5 -28t-146.5 28t-117 77.5
t-77.5 117.5t-28 149t28 149t77.5 117.5t117 77.5t146.5 28t146.5 -28t117 -77.5t77.5 -117.5t28 -149z" />
    <glyph glyph-name="P" unicode="P" horiz-adv-x="574" 
d="M168 395h116q48 0 81.5 10t53.5 26.5t29 39t9 48.5q0 25 -9 47.5t-29 39.5t-53.5 26.5t-81.5 9.5h-116v-247zM96 708h206q108 0 170.5 -47t62.5 -142t-62.5 -142.5t-170.5 -47.5h-134v-329h-72v708z" />
    <glyph glyph-name="Q" unicode="Q" horiz-adv-x="834" 
d="M811 0h-405q-77 0 -142.5 27t-113.5 75.5t-75 115t-27 145.5t27 145.5t75 115t113.5 75.5t142.5 27q76 0 141.5 -27t113.5 -75.5t75 -115t27 -145.5q0 -96 -39.5 -172.5t-126.5 -122.5v-2h214v-66zM126 363q0 -59 19 -112.5t55 -94.5t88 -65.5t118 -24.5q65 0 117 24.5
t88 65.5t55 94.5t19 112.5t-19 112.5t-55 94.5t-88 65.5t-117 24.5q-66 0 -118 -24.5t-88 -65.5t-55 -94.5t-19 -112.5z" />
    <glyph glyph-name="R" unicode="R" horiz-adv-x="593" 
d="M168 395h128q48 0 81.5 10t53.5 26.5t29 39t9 48.5q0 25 -9 47.5t-29 39.5t-53.5 26.5t-81.5 9.5h-128v-247zM168 0h-72v708h218q108 0 170.5 -47t62.5 -142q0 -74 -46.5 -124.5t-134.5 -58.5l204 -336h-88l-194 329h-120v-329z" />
    <glyph glyph-name="S" unicode="S" 
d="M431 591q-47 69 -137 69q-28 0 -55 -7.5t-48.5 -23t-34.5 -40t-13 -57.5q0 -48 27 -74.5t67 -43.5t87.5 -30.5t87.5 -36t67 -59.5t27 -101q0 -48 -20.5 -86.5t-54 -64.5t-75 -40t-83.5 -14q-65 0 -123.5 24.5t-99.5 80.5l65 47q23 -39 64 -62.5t97 -23.5q27 0 54 8.5
t48.5 25t35.5 40.5t14 55q0 37 -15.5 61.5t-41 41t-58 27.5l-67 22t-67 25t-58 35.5t-41 54t-15.5 81.5q0 51 19.5 89t52 63t73.5 37t84 12q60 0 109 -19t91 -67z" />
    <glyph glyph-name="T" unicode="T" horiz-adv-x="574" 
d="M323 0h-72v642h-237v66h546v-66h-237v-642z" />
    <glyph glyph-name="U" unicode="U" horiz-adv-x="686" 
d="M602 264q0 -44 -10.5 -93.5t-39.5 -91.5t-79.5 -69.5t-129.5 -27.5q-80 0 -130 27.5t-79 69.5t-39.5 91.5t-10.5 93.5v444h72v-436q0 -51 10 -87.5t26.5 -61.5t37 -39.5t41 -22.5t39.5 -10.5t33 -2.5q13 0 32.5 2.5t40 10.5t41 22.5t37 39.5t26.5 61.5t10 87.5v436h72
v-444z" />
    <glyph glyph-name="V" unicode="V" horiz-adv-x="611" 
d="M302 108h2l232 600h78l-276 -708h-72l-269 708h80z" />
    <glyph glyph-name="W" unicode="W" horiz-adv-x="944" 
d="M250 102h2l178 606h86l178 -606h2l168 606h80l-209 -708h-84l-178 606h-2l-178 -606h-84l-209 708h80z" />
    <glyph glyph-name="X" unicode="X" horiz-adv-x="630" 
d="M316 425l198 283h90l-240 -336l260 -372h-95l-216 321l-217 -321h-90l259 372l-239 336h97z" />
    <glyph glyph-name="Y" unicode="Y" horiz-adv-x="574" 
d="M323 0h-72v305l-265 403h90l211 -334l211 334h90l-265 -403v-305z" />
    <glyph glyph-name="Z" unicode="Z" 
d="M527 648l-413 -582h419v-66h-510v60l414 582h-408v66h498v-60z" />
    <glyph glyph-name="bracketleft" unicode="[" horiz-adv-x="260" 
d="M227 678h-96v-780h96v-54h-162v888h162v-54z" />
    <glyph glyph-name="backslash" unicode="\" horiz-adv-x="370" 
d="M5 706l57 20l303 -725l-58 -19z" />
    <glyph glyph-name="bracketright" unicode="]" horiz-adv-x="260" 
d="M33 -102h96v780h-96v54h162v-888h-162v54z" />
    <glyph glyph-name="asciicircum" unicode="^" horiz-adv-x="666" 
d="M309 708h48l229 -433h-62l-191 361l-191 -361h-62z" />
    <glyph glyph-name="underscore" unicode="_" horiz-adv-x="500" 
d="M0 -75h500v-50h-500v50z" />
    <glyph glyph-name="grave" unicode="`" horiz-adv-x="240" 
d="M-10 708h91l100 -144h-59z" />
    <glyph glyph-name="a" unicode="a" horiz-adv-x="519" 
d="M338 233q-25 0 -62.5 -2.5t-72 -12t-59 -29.5t-24.5 -55q0 -23 9.5 -39.5t25.5 -27t35.5 -15t39.5 -4.5q36 0 62.5 12t44.5 32.5t26.5 48t8.5 58.5v34h-34zM372 287v12q0 121 -120 121q-82 0 -143 -55l-40 47q66 68 198 68q34 0 65.5 -10t54.5 -30.5t37 -51.5t14 -74
v-209q0 -27 2.5 -56.5t5.5 -48.5h-64q-3 17 -4.5 37t-1.5 39h-2q-29 -47 -68.5 -67.5t-96.5 -20.5q-31 0 -60 8.5t-51.5 26t-36 43t-13.5 59.5q0 57 29.5 89.5t74 48.5t95 20t92.5 4h33z" />
    <glyph glyph-name="b" unicode="b" horiz-adv-x="611" 
d="M499 234q0 39 -12.5 73t-35.5 59t-55.5 39.5t-73.5 14.5t-75 -14.5t-59 -39.5t-39 -59t-14 -73t14 -73t39 -59t59 -39.5t75 -14.5t73.5 14.5t55.5 39.5t35.5 59t12.5 73zM72 756h66v-366h2q16 24 38 41t46 28t49.5 16t48.5 5q55 0 100.5 -18.5t78.5 -51.5t51.5 -78
t18.5 -98t-18.5 -98t-51.5 -78t-78.5 -51.5t-100.5 -18.5q-23 0 -48.5 5t-49.5 16t-46 28t-38 41h-2v-78h-66v756z" />
    <glyph glyph-name="c" unicode="c" horiz-adv-x="482" 
d="M413 358q-17 26 -47.5 44t-69.5 18q-41 1 -73.5 -13t-55.5 -39t-35 -59.5t-12 -74.5t12 -74.5t35 -59.5t55.5 -39t73.5 -13q39 0 69.5 18t47.5 44l54 -41q-35 -41 -79 -60.5t-92 -20.5q-57 -1 -103 17.5t-78.5 51.5t-49.5 78.5t-17 98.5t17 98.5t49.5 78.5t78.5 51.5
t103 17.5q48 -1 92 -20.5t79 -60.5z" />
    <glyph glyph-name="d" unicode="d" horiz-adv-x="611" 
d="M112 234q0 -39 12.5 -73t35.5 -59t55.5 -39.5t73.5 -14.5q40 0 74.5 14.5t59.5 39.5t39 59t14 73t-14 73t-39 59t-59.5 39.5t-74.5 14.5q-41 0 -73.5 -14.5t-55.5 -39.5t-35.5 -59t-12.5 -73zM539 0h-66v78h-2q-16 -24 -38 -41t-46 -28t-49.5 -16t-48.5 -5
q-55 0 -100.5 18.5t-78.5 51.5t-51.5 78t-18.5 98t18.5 98t51.5 78t78.5 51.5t100.5 18.5q23 0 48.5 -5t49.5 -16t46 -28t38 -41h2v366h66v-756z" />
    <glyph glyph-name="e" unicode="e" 
d="M436 270q0 67 -40 108.5t-112 41.5q-32 0 -62 -12.5t-52.5 -33.5t-36 -48t-13.5 -56h316zM118 216q3 -35 17 -66t37 -53.5t53 -35.5t65 -13q53 0 91.5 24.5t58.5 56.5l51 -42q-42 -53 -92.5 -76t-108.5 -23q-52 0 -96.5 18.5t-76.5 51.5t-50.5 78t-18.5 98t18 98t50 78
t75 51.5t93 18.5q53 0 95 -19t70.5 -50.5t43.5 -74t15 -90.5v-30h-390z" />
    <glyph glyph-name="f" unicode="f" horiz-adv-x="296" 
d="M290 408h-111v-408h-66v408h-99v60h99v128q0 93 43 132.5t114 39.5q14 0 28.5 -2t28.5 -5l-12 -60q-12 3 -25 5t-26 2q-27 0 -44 -9t-26 -25.5t-12 -38.5t-3 -47v-120h111v-60z" />
    <glyph glyph-name="g" unicode="g" horiz-adv-x="611" 
d="M120 240q0 -37 13.5 -69.5t37 -57t55 -39t68.5 -14.5q36 0 68.5 13t57.5 36.5t38.5 56.5t12.5 74q0 37 -12 69.5t-35 57t-56 39t-74 14.5q-37 0 -68.5 -14.5t-55 -39t-37 -57t-13.5 -69.5zM108 -94q29 -39 75.5 -62.5t103.5 -23.5q50 0 85 14.5t56.5 39.5t31 58.5
t9.5 71.5v84h-2q-32 -48 -78 -68t-97 -20t-95.5 18t-77.5 49.5t-52 75.5t-19 95t18 95t49.5 77t75 51.5t95.5 18.5q21 0 44.5 -4t47 -14t46.5 -27.5t43 -44.5h2v78h66v-464q0 -38 -9.5 -81t-37 -79t-76.5 -60t-128 -24q-70 0 -125 23t-100 71z" />
    <glyph glyph-name="h" unicode="h" 
d="M72 756h66v-363h2q11 19 28 35t38 27.5t44.5 18t46.5 6.5q90 0 133 -47.5t43 -135.5v-297h-66v259q0 78 -27 119.5t-100 41.5q-5 0 -28 -4t-48.5 -22t-45.5 -54t-20 -100v-240h-66v756z" />
    <glyph glyph-name="i" unicode="i" horiz-adv-x="240" 
d="M168 648q0 -21 -15 -34.5t-33 -13.5t-33 13.5t-15 34.5t15 34.5t33 13.5t33 -13.5t15 -34.5zM153 0h-66v468h66v-468z" />
    <glyph glyph-name="j" unicode="j" horiz-adv-x="240" 
d="M168 648q0 -21 -15 -34.5t-33 -13.5t-33 13.5t-15 34.5t15 34.5t33 13.5t33 -13.5t15 -34.5zM-22 -173l3 -1q8 -2 17.5 -4t17.5 -2q24 0 38.5 9t21.5 23.5t9 31.5t2 34v550h66v-561q0 -10 -1 -34.5t-12.5 -49.5t-39 -44t-79.5 -19q-28 0 -52 10z" />
    <glyph glyph-name="k" unicode="k" horiz-adv-x="482" 
d="M138 257l221 211h99l-233 -214l258 -254h-102l-243 246v-246h-66v756h66v-499z" />
    <glyph glyph-name="l" unicode="l" horiz-adv-x="240" 
d="M153 0h-66v756h66v-756z" />
    <glyph glyph-name="m" unicode="m" horiz-adv-x="852" 
d="M72 364q0 26 -1.5 52t-3.5 52h71v-71h2q24 41 66.5 62t84.5 21q19 0 40.5 -4t41.5 -14.5t37.5 -29.5t29.5 -49q20 45 63.5 71t90.5 26q90 0 133 -47.5t43 -135.5v-297h-66v273q0 71 -25 109t-93 38q-37 0 -62 -14.5t-40.5 -38.5t-22.5 -54.5t-7 -63.5v-249h-66v273
q0 71 -25 109t-93 38q-6 0 -27.5 -4t-44.5 -22t-41.5 -54t-18.5 -100v-240h-66v364z" />
    <glyph glyph-name="n" unicode="n" 
d="M135 468q2 -19 2.5 -37.5t0.5 -37.5h2q11 19 28 35t38 27.5t44.5 18t46.5 6.5q90 0 133 -47.5t43 -135.5v-297h-66v259q0 78 -27 119.5t-100 41.5q-5 0 -28 -4t-48.5 -22t-45.5 -54t-20 -100v-240h-66v365q0 19 -1.5 48t-3.5 55h68z" />
    <glyph glyph-name="o" unicode="o" horiz-adv-x="593" 
d="M473 234q0 39 -12.5 73t-35.5 59t-55.5 39.5t-73.5 14.5t-73.5 -14.5t-55 -39.5t-35 -59t-12.5 -73t12.5 -73t35 -59t55 -39.5t73.5 -14.5t73.5 14.5t55.5 39.5t35.5 59t12.5 73zM545 234q0 -53 -18.5 -98t-51.5 -78t-78.5 -51.5t-100.5 -18.5q-54 0 -99.5 18.5
t-78.5 51.5t-51.5 78t-18.5 98t18.5 98t51.5 78t78.5 51.5t99.5 18.5q55 0 100.5 -18.5t78.5 -51.5t51.5 -78t18.5 -98z" />
    <glyph glyph-name="p" unicode="p" horiz-adv-x="611" 
d="M499 234q0 39 -12.5 73t-35.5 59t-55.5 39.5t-73.5 14.5t-75 -14.5t-59 -39.5t-39 -59t-14 -73t14 -73t39 -59t59 -39.5t75 -14.5t73.5 14.5t55.5 39.5t35.5 59t12.5 73zM72 468h66v-78h2q16 24 38 41t46 28t49.5 16t48.5 5q55 0 100.5 -18.5t78.5 -51.5t51.5 -78
t18.5 -98t-18.5 -98t-51.5 -78t-78.5 -51.5t-100.5 -18.5q-23 0 -48.5 5t-49.5 16t-46 28t-38 41h-2v-366h-66v756z" />
    <glyph glyph-name="q" unicode="q" horiz-adv-x="611" 
d="M112 234q0 -39 12.5 -73t35.5 -59t55.5 -39.5t73.5 -14.5q40 0 74.5 14.5t59.5 39.5t39 59t14 73t-14 73t-39 59t-59.5 39.5t-74.5 14.5q-41 0 -73.5 -14.5t-55.5 -39.5t-35.5 -59t-12.5 -73zM539 -288h-66v366h-2q-16 -24 -38 -41t-46 -28t-49.5 -16t-48.5 -5
q-55 0 -100.5 18.5t-78.5 51.5t-51.5 78t-18.5 98t18.5 98t51.5 78t78.5 51.5t100.5 18.5q23 0 48.5 -5t49.5 -16t46 -28t38 -41h2v78h66v-756z" />
    <glyph glyph-name="r" unicode="r" horiz-adv-x="332" 
d="M79 322q0 31 -1.5 63t-2.5 83h65v-87h2q7 19 20 36.5t31.5 31.5t43 22.5t55.5 8.5q28 0 49 -6l-13 -65q-13 5 -38 5q-38 0 -65 -14.5t-45 -37t-26.5 -48.5t-8.5 -50v-264h-66v322z" />
    <glyph glyph-name="s" unicode="s" horiz-adv-x="426" 
d="M320 357q-15 29 -40 46t-61 17q-17 0 -34.5 -4t-31.5 -12.5t-22.5 -21.5t-8.5 -32q0 -33 23 -48t69 -26l67 -16q49 -11 81.5 -44.5t32.5 -83.5q0 -38 -15.5 -65.5t-41 -45t-58.5 -25.5t-67 -8q-54 0 -100.5 20.5t-79.5 70.5l57 39q20 -32 50.5 -51t72.5 -19q20 0 40 4.5
t35.5 14t25 24.5t9.5 35q0 35 -26 50.5t-63 24.5l-64 15q-12 3 -32.5 10t-40 21t-33.5 36.5t-14 55.5q0 36 14.5 63t39 44t55.5 25.5t64 8.5q49 0 91 -19t65 -65z" />
    <glyph glyph-name="t" unicode="t" horiz-adv-x="332" 
d="M314 408h-135v-276q0 -26 5 -42.5t14 -25.5t21.5 -12.5t27.5 -3.5q17 0 35 5t33 13l3 -61q-37 -17 -89 -17q-19 0 -39.5 5t-37.5 19t-28 38t-11 63v295h-99v60h99v132h66v-132h135v-60z" />
    <glyph glyph-name="u" unicode="u" 
d="M410 0q-2 19 -2.5 37.5t-0.5 37.5h-2q-11 -19 -28 -35t-38 -27.5t-44.5 -18t-46.5 -6.5q-90 0 -133 47.5t-43 135.5v297h66v-259q0 -39 6 -69t20.5 -50.5t39 -31t61.5 -10.5q5 0 28 4t48.5 22t45.5 54t20 100v240h66v-365q0 -19 1.5 -48t3.5 -55h-68z" />
    <glyph glyph-name="v" unicode="v" horiz-adv-x="482" 
d="M278 0h-74l-190 468h79l149 -394h2l149 394h75z" />
    <glyph glyph-name="w" unicode="w" horiz-adv-x="722" 
d="M92 468l108 -380h2l125 380h68l125 -380h2l108 380h78l-148 -468h-74l-124 384h-2l-124 -384h-74l-148 468h78z" />
    <glyph glyph-name="x" unicode="x" horiz-adv-x="482" 
d="M193 250l-170 218h90l130 -175l124 175h82l-163 -218l196 -250h-90l-157 205l-151 -205h-84z" />
    <glyph glyph-name="y" unicode="y" horiz-adv-x="482" 
d="M246 81l143 387h80l-234 -590q-21 -54 -53.5 -86t-93.5 -32q-15 0 -30.5 1t-30.5 6l7 64q21 -11 50 -11q35 0 55 22t35 62l34 90l-192 474h83z" />
    <glyph glyph-name="z" unicode="z" horiz-adv-x="426" 
d="M393 420l-274 -360h284v-60h-380v48l274 360h-260v60h356v-48z" />
    <glyph glyph-name="braceleft" unicode="{" horiz-adv-x="260" 
d="M12 318q34 0 61.5 29t27.5 82v178q0 35 9 59t24 38.5t34.5 21t40.5 6.5h64v-60h-56q-18 0 -28.5 -7.5t-15 -19.5t-5.5 -27t-1 -29v-172q0 -36 -10.5 -60.5t-25 -39t-29.5 -21t-24 -7.5v-2q9 -1 24 -7.5t29.5 -21t25 -39t10.5 -60.5v-172q0 -14 1 -29t5.5 -27t15 -19.5
t28.5 -7.5h56v-60h-64q-21 0 -40.5 6.5t-34.5 21t-24 38.5t-9 59v178q0 53 -27.5 82t-61.5 29v60z" />
    <glyph glyph-name="bar" unicode="|" horiz-adv-x="222" 
d="M81 756h60v-774h-60v774z" />
    <glyph glyph-name="braceright" unicode="}" horiz-adv-x="260" 
d="M248 258q-34 0 -61.5 -29t-27.5 -82v-178q0 -35 -9 -59t-24 -38.5t-34.5 -21t-40.5 -6.5h-64v60h56q18 0 28.5 7.5t15 19.5t5.5 27t1 29v172q0 36 10.5 60.5t25 39t29.5 21t24 7.5v2q-9 1 -24 7.5t-29.5 21t-25 39t-10.5 60.5v172q0 14 -1 29t-5.5 27t-15 19.5t-28.5 7.5
h-56v60h64q21 0 40.5 -6.5t34.5 -21t24 -38.5t9 -59v-178q0 -53 27.5 -82t61.5 -29v-60z" />
    <glyph glyph-name="asciitilde" unicode="~" horiz-adv-x="666" 
d="M577 328q-11 -16 -24.5 -32.5t-30 -30t-37 -22t-44.5 -8.5q-16 0 -27 0.5t-22 3.5t-24 9t-31 16l-52 30.5t-55 16.5q-17 0 -32 -7.5t-28 -19t-22.5 -24l-16.5 -22.5l-42 40q11 16 24.5 32.5t30 30t37 22t44.5 8.5q16 0 27 -0.5t22 -3.5t24 -9t31 -16l52 -30.5t55 -16.5
q17 0 32 7.5t28 19t22.5 24l16.5 22.5z" />
    <glyph glyph-name="uni00A0" unicode="&#xa0;" horiz-adv-x="278" 
 />
    <glyph glyph-name="exclamdown" unicode="&#xa1;" horiz-adv-x="278" 
d="M85 432q0 21 15 37.5t39 16.5t39 -16.5t15 -37.5t-15 -37.5t-39 -16.5t-39 16.5t-15 37.5zM103 288h72v-516h-72v516z" />
    <glyph glyph-name="cent" unicode="&#xa2;" 
d="M336 49q36 2 64 19.5t43 41.5l54 -41q-32 -38 -74 -58t-87 -22v-61h-48v63q-49 5 -88 25.5t-66 53t-41.5 74.5t-14.5 90t14.5 90t41.5 74.5t66 53t88 25.5v63h48v-61q45 -2 87 -22t74 -58l-54 -41q-15 24 -43 41.5t-64 19.5v-370zM288 417q-32 -6 -57.5 -22t-43.5 -40
t-27.5 -55t-9.5 -66t9.5 -66t27.5 -55t43.5 -40t57.5 -22v366z" />
    <glyph glyph-name="sterling" unicode="&#xa3;" 
d="M426 335h-168v-275h253v-60h-427v60h102v275h-96v60h96v87q0 48 10 91t34 75.5t65 52t103 19.5q44 0 84.5 -14t70.5 -46l-47 -51q-20 23 -48 37t-63 14q-46 0 -73 -19t-41.5 -47.5t-18.5 -60.5t-4 -57v-81h168v-60z" />
    <glyph glyph-name="currency" unicode="&#xa4;" 
d="M96 354q0 -39 14 -73.5t39 -60t58 -40.5t71 -15q37 0 70 15t57.5 40.5t38.5 60t14 73.5t-14 73.5t-38.5 60t-57.5 40.5t-70 15q-38 0 -71 -15t-58 -40.5t-39 -60t-14 -73.5zM471 506q26 -33 40 -71.5t13 -80.5q1 -42 -13 -80.5t-40 -71.5l53 -53l-44 -44l-53 53
q-33 -26 -71.5 -39.5t-78.5 -13.5t-78.5 13.5t-71.5 39.5l-53 -53l-44 44l53 53q-26 33 -40 71.5t-13 80.5q-1 42 13 80.5t40 71.5l-53 53l44 44l53 -53q33 26 71.5 39.5t78.5 13.5t78.5 -13.5t71.5 -39.5l53 53l44 -44z" />
    <glyph glyph-name="yen" unicode="&#xa5;" 
d="M242 223v77l-7 12h-156v54h124l-205 342h85l195 -340l195 340h85l-204 -342h123v-54h-156l-7 -12v-77h163v-54h-163v-169h-72v169h-163v54h163z" />
    <glyph glyph-name="brokenbar" unicode="&#xa6;" horiz-adv-x="222" 
d="M141 454h-60v302h60v-302zM81 284h60v-302h-60v302z" />
    <glyph glyph-name="section" unicode="&#xa7;" 
d="M225 397q-29 -12 -51.5 -32t-22.5 -52q0 -21 10.5 -36.5t26 -27t33.5 -20.5t34 -16l66 -32q13 5 26 14t23.5 20.5t17 25.5t6.5 29q0 22 -8.5 38.5t-22 29.5t-30.5 22.5t-34 17.5l-57 26zM394 596q-5 10 -13.5 21t-22 20.5t-31.5 16t-41 6.5q-35 0 -56 -11t-32.5 -26
t-15.5 -30t-4 -23q0 -37 23.5 -57.5t57.5 -37.5l110 -56q42 -22 69.5 -54.5t27.5 -84.5q0 -46 -24 -78t-63 -53q38 -26 53.5 -54t15.5 -71q0 -42 -15.5 -72.5t-42 -51t-60.5 -30t-70 -9.5q-67 0 -120.5 28t-77.5 87l66 32q17 -47 53.5 -67t78.5 -20q20 0 40.5 5t37.5 17
t27.5 31.5t10.5 48.5q0 31 -19 51.5t-51 36.5l-137 67q-39 19 -64.5 50.5t-25.5 79.5q0 50 29.5 82t74.5 52l-23.5 16.5t-25.5 23.5t-20 33.5t-8 46.5q0 39 14.5 68.5t38.5 49.5t55.5 30t66.5 10q67 0 112 -27.5t60 -66.5z" />
    <glyph glyph-name="dieresis" unicode="&#xa8;" horiz-adv-x="240" 
d="M165 647q0 20 14 35.5t37 15.5t37 -15.5t14 -35.5t-14 -35.5t-37 -15.5t-37 15.5t-14 35.5zM-27 647q0 20 14 35.5t37 15.5t37 -15.5t14 -35.5t-14 -35.5t-37 -15.5t-37 15.5t-14 35.5z" />
    <glyph glyph-name="copyright" unicode="&#xa9;" horiz-adv-x="800" 
d="M85 352q0 -67 24.5 -124.5t67.5 -100t100 -67t123 -24.5t123 24.5t100 67.5t67.5 101.5t24.5 126.5q0 67 -24.5 125t-67.5 100.5t-100 66.5t-123 24t-123 -24.5t-100 -67t-67.5 -101t-24.5 -127.5zM25 352q0 80 30 148.5t81 118.5t119 78.5t145 28.5q76 0 144.5 -28.5
t119.5 -78t81 -117t30 -146.5q0 -80 -30 -148.5t-81 -118.5t-119.5 -78.5t-144.5 -28.5q-77 0 -145 28.5t-119 78t-81 117t-30 146.5zM602 282q-17 -72 -67.5 -114t-119.5 -42q-51 0 -92 17.5t-70 48t-45 72t-16 90.5t15 91t43.5 72t69.5 47t92 17q36 0 68 -9.5t57 -28.5
t42 -47.5t22 -66.5h-56q-8 42 -44 70t-88 28q-38 0 -68 -13.5t-50.5 -36.5t-31.5 -54t-11 -67q0 -35 11.5 -66.5t33 -56t51.5 -39t67 -14.5q52 0 87 29.5t43 72.5h57z" />
    <glyph glyph-name="ordfeminine" unicode="&#xaa;" horiz-adv-x="337" 
d="M215 559q-13 0 -34 -1t-41 -5.5t-34.5 -14.5t-14.5 -28q0 -20 18.5 -29t40.5 -9q26 0 41.5 8.5t23.5 21.5t10.5 28.5t2.5 28.5h-13zM136 424q-20 0 -39 5t-33.5 15.5t-23.5 26t-9 36.5q0 23 9 41.5t29 31.5t53.5 20t83.5 7h22v8q0 57 -64 57q-27 0 -49 -8t-40 -22l-32 37
q26 25 56.5 33t62.5 8q37 0 61.5 -9.5t39 -23t20 -29.5t5.5 -28v-137q0 -17 1.5 -33.5t3.5 -29.5h-54l-3 36h-1q-14 -20 -39 -31t-60 -11z" />
    <glyph glyph-name="guillemotleft" unicode="&#xab;" horiz-adv-x="482" 
d="M306 240l115 -176l-47 -33l-140 209l140 209l47 -33zM124 240l115 -176l-47 -33l-140 209l140 209l47 -33z" />
    <glyph glyph-name="logicalnot" unicode="&#xac;" horiz-adv-x="666" 
d="M588 130h-60v218h-450v60h510v-278z" />
    <glyph glyph-name="uni00AD" unicode="&#xad;" horiz-adv-x="333" 
d="M295 207h-257v66h257v-66z" />
    <glyph glyph-name="registered" unicode="&#xae;" horiz-adv-x="800" 
d="M85 352q0 -67 24.5 -124.5t67.5 -100t100 -67t123 -24.5t123 24.5t100 67.5t67.5 101.5t24.5 126.5q0 67 -24.5 125t-67.5 100.5t-100 66.5t-123 24t-123 -24.5t-100 -67t-67.5 -101t-24.5 -127.5zM25 352q0 80 30 148.5t81 118.5t119 78.5t145 28.5q76 0 144.5 -28.5
t119.5 -78t81 -117t30 -146.5q0 -80 -30 -148.5t-81 -118.5t-119.5 -78.5t-144.5 -28.5q-77 0 -145 28.5t-119 78t-81 117t-30 146.5zM321 375h74q22 0 43 1.5t37.5 8.5t26 21t9.5 40q0 22 -8.5 35.5t-22.5 20.5t-31.5 9t-34.5 2h-93v-138zM261 567h158q78 0 115 -29.5
t37 -94.5q0 -58 -33 -85t-81 -32l124 -190h-65l-118 185h-77v-185h-60v431z" />
    <glyph glyph-name="macron" unicode="&#xaf;" horiz-adv-x="240" 
d="M255 600h-270v54h270v-54z" />
    <glyph glyph-name="degree" unicode="&#xb0;" horiz-adv-x="400" 
d="M301 571q0 21 -8 39.5t-21.5 32t-32 21.5t-39.5 8t-39.5 -8t-32 -21.5t-21.5 -32t-8 -39.5t8 -39.5t21.5 -32t32 -21.5t39.5 -8t39.5 8t32 21.5t21.5 32t8 39.5zM349 571q0 -32 -11 -59.5t-31 -47.5t-47.5 -31t-59.5 -11t-59.5 11t-47.5 31t-31 47.5t-11 59.5t11 59.5
t31 47.5t47.5 31t59.5 11t59.5 -11t47.5 -31t31 -47.5t11 -59.5z" />
    <glyph glyph-name="plusminus" unicode="&#xb1;" horiz-adv-x="666" 
d="M78 108h510v-60h-510v60zM78 407h225v156h60v-156h225v-60h-225v-151h-60v151h-225v60z" />
    <glyph glyph-name="twosuperior" unicode="&#xb2;" horiz-adv-x="361" 
d="M327 289h-293v57l171 164q20 20 39 43.5t19 52.5q0 12 -7 23t-17.5 19.5t-24.5 13t-27 4.5q-33 0 -56.5 -16.5t-31.5 -39.5l-56 9q10 49 48.5 75t92.5 26q28 0 53 -7t44 -20.5t30.5 -34.5t11.5 -48q0 -24 -8 -45t-21 -39t-30 -34l-34 -32l-130 -117h227v-54z" />
    <glyph glyph-name="threesuperior" unicode="&#xb3;" horiz-adv-x="361" 
d="M130 537h24q41 0 70.5 16.5t29.5 50.5q0 27 -20.5 44.5t-51.5 17.5q-29 0 -47.5 -9.5t-38.5 -36.5l-47 33q26 38 58 52.5t74 14.5q27 0 51 -7.5t42.5 -21.5t29 -34.5t10.5 -46.5q0 -35 -23.5 -61.5t-58.5 -37.5v-2q46 -8 70.5 -36.5t24.5 -67.5q0 -29 -11.5 -52
t-32 -38.5t-47 -23.5t-56.5 -8q-51 0 -88.5 20.5t-57.5 65.5l52 30q12 -30 34 -46t64 -16q15 0 29.5 6t26.5 15.5t19.5 22t7.5 25.5q0 12 -4.5 25.5t-16.5 25t-33 19t-54 7.5h-29v54z" />
    <glyph glyph-name="acute" unicode="&#xb4;" horiz-adv-x="240" 
d="M118 564h-59l100 144h91z" />
    <glyph glyph-name="mu" unicode="&#xb5;" 
d="M72 468h66v-259q0 -86 27.5 -123.5t99.5 -37.5q30 0 56 12t45 35t30 56.5t11 76.5v240h66v-365q0 -26 1.5 -51.5t3.5 -51.5h-71v76h-2q-11 -18 -28 -34t-38 -28t-44.5 -19t-46.5 -7q-69 0 -110 29v-245h-66v696z" />
    <glyph glyph-name="paragraph" unicode="&#xb6;" horiz-adv-x="600" 
d="M513 -126h-66v780h-124v-780h-66v442q-46 0 -84.5 14.5t-66 39.5t-43 59t-15.5 73q0 98 61 152t167 54h237v-834z" />
    <glyph glyph-name="periodcentered" unicode="&#xb7;" horiz-adv-x="278" 
d="M193 314q0 -21 -15 -37.5t-39 -16.5t-39 16.5t-15 37.5t15 37.5t39 16.5t39 -16.5t15 -37.5z" />
    <glyph glyph-name="cedilla" unicode="&#xb8;" horiz-adv-x="240" 
d="M111 -60l2 -1q8 3 16.5 5t19.5 2q30 0 53.5 -19.5t23.5 -55.5q0 -23 -10.5 -40t-27 -27.5t-37 -15.5t-40.5 -5q-52 0 -97 24l16 36q34 -18 74 -18q22 0 42 10t20 35q0 4 -2 11t-7 13.5t-15 11t-25 4.5q-14 0 -25 -3t-21 -8l-18 17l62 84h41z" />
    <glyph glyph-name="onesuperior" unicode="&#xb9;" horiz-adv-x="361" 
d="M225 289h-60v365l-82 -67l-29 38l117 89h54v-425z" />
    <glyph glyph-name="ordmasculine" unicode="&#xba;" horiz-adv-x="385" 
d="M294 571q0 21 -7.5 39t-21 32t-32.5 22t-41 8q-45 0 -73 -29.5t-28 -71.5q0 -41 28 -70t73 -29q22 0 41 8t32.5 21.5t21 31.5t7.5 38zM354 571q0 -32 -12 -58.5t-33.5 -46.5t-51 -31t-65.5 -11q-35 0 -64.5 11t-51 31t-33.5 46.5t-12 58.5t12 59.5t33.5 47.5t51 31
t64.5 11q36 0 65.5 -11t51 -31t33.5 -47.5t12 -59.5z" />
    <glyph glyph-name="guillemotright" unicode="&#xbb;" horiz-adv-x="482" 
d="M176 240l-115 176l47 33l140 -209l-140 -209l-47 33zM358 240l-115 176l47 33l140 -209l-140 -209l-47 33z" />
    <glyph glyph-name="onequarter" unicode="&#xbc;" horiz-adv-x="834" 
d="M650 365h-2l-136 -217h138v217zM710 148h60v-54h-60v-94h-60v94h-192v62l179 269h73v-277zM235 289h-60v365l-82 -67l-29 38l117 89h54v-425zM153 0l451 740l51 -31l-450 -741z" />
    <glyph glyph-name="onehalf" unicode="&#xbd;" horiz-adv-x="834" 
d="M795 0h-293v57l171 164q20 20 39 43.5t19 52.5q0 12 -7 23t-17.5 19.5t-24.5 13t-27 4.5q-33 0 -56.5 -16.5t-31.5 -39.5l-56 9q10 49 48.5 75t92.5 26q28 0 53 -7t44 -20.5t30.5 -34.5t11.5 -48q0 -24 -8 -45t-21 -39t-30 -34l-34 -32l-130 -117h227v-54zM210 289h-60
v365l-82 -67l-29 38l117 89h54v-425zM128 0l451 740l51 -31l-450 -741z" />
    <glyph glyph-name="threequarters" unicode="&#xbe;" horiz-adv-x="834" 
d="M670 365h-2l-136 -217h138v217zM730 148h60v-54h-60v-94h-60v94h-192v62l179 269h73v-277zM139 537h24q41 0 70.5 17t29.5 54q0 24 -20.5 41t-51.5 17q-29 0 -47.5 -9.5t-38.5 -36.5l-47 33q26 38 58 52.5t74 14.5q27 0 51 -7.5t42.5 -21.5t29 -34.5t10.5 -46.5
q0 -35 -23.5 -61.5t-58.5 -37.5v-2q46 -8 70.5 -36.5t24.5 -67.5q0 -29 -11.5 -52t-32 -38.5t-47 -23.5t-56.5 -8q-51 0 -88.5 20.5t-56.5 65.5l51 30q12 -30 34 -46t64 -16q15 0 29.5 6t26.5 15.5t19.5 22t7.5 25.5q0 12 -4.5 25.5t-16.5 25t-33 19t-54 7.5h-29v54zM193 0
l451 740l51 -31l-450 -741z" />
    <glyph glyph-name="questiondown" unicode="&#xbf;" horiz-adv-x="482" 
d="M182 432q0 21 15 37.5t39 16.5t39 -16.5t15 -37.5t-15 -37.5t-39 -16.5t-39 16.5t-15 37.5zM206 288h72v-83q-1 -28 -13 -50t-30 -41.5t-39 -37.5t-38.5 -38.5t-29.5 -44t-12 -52.5q0 -51 32.5 -83t84.5 -32q51 0 84.5 30t42.5 79l75 -9q-6 -39 -23.5 -70t-44 -52.5
t-60.5 -32.5t-73 -11q-40 0 -75 11.5t-60.5 33.5t-40 55t-14.5 75t12 71t30 50.5t39 38.5t39 36.5t30 44t12 61.5v51z" />
    <glyph glyph-name="Agrave" unicode="&#xc0;" horiz-adv-x="686" 
d="M189 252h307l-153 372zM84 0h-84l308 708h70l308 -708h-84l-78 186h-362zM213 883h91l100 -144h-59z" />
    <glyph glyph-name="Aacute" unicode="&#xc1;" horiz-adv-x="686" 
d="M189 252h307l-153 372zM84 0h-84l308 708h70l308 -708h-84l-78 186h-362zM341 739h-59l100 144h91z" />
    <glyph glyph-name="Acircumflex" unicode="&#xc2;" horiz-adv-x="686" 
d="M189 252h307l-153 372zM84 0h-84l308 708h70l308 -708h-84l-78 186h-362zM492 739h-66l-83 108l-83 -108h-66l109 144h80z" />
    <glyph glyph-name="Atilde" unicode="&#xc3;" horiz-adv-x="686" 
d="M189 252h307l-153 372zM84 0h-84l308 708h70l308 -708h-84l-78 186h-362zM181 751q3 19 9.5 38t17.5 33.5t26.5 23.5t38.5 9q18 0 36.5 -7t36.5 -16l35 -15.5t32 -7.5q23 0 33.5 15.5t15.5 34.5h43q-3 -20 -9.5 -38.5t-17.5 -33t-27 -23.5t-38 -9q-18 0 -36.5 7.5
l-36.5 15.5q-17 9 -34 16t-33 7q-23 0 -33.5 -15.5t-15.5 -34.5h-43z" />
    <glyph glyph-name="Adieresis" unicode="&#xc4;" horiz-adv-x="686" 
d="M189 252h307l-153 372zM84 0h-84l308 708h70l308 -708h-84l-78 186h-362zM388 822q0 20 14 35.5t37 15.5t37 -15.5t14 -35.5t-14 -35.5t-37 -15.5t-37 15.5t-14 35.5zM196 822q0 20 14 35.5t37 15.5t37 -15.5t14 -35.5t-14 -35.5t-37 -15.5t-37 15.5t-14 35.5z" />
    <glyph glyph-name="Aring" unicode="&#xc5;" horiz-adv-x="686" 
d="M189 252h307l-153 372zM84 0h-84l308 708h70l308 -708h-84l-78 186h-362zM403 825q0 25 -17.5 42t-42.5 17t-42.5 -17t-17.5 -42t17.5 -42t42.5 -17t42.5 17t17.5 42zM439 825q0 -20 -7.5 -37.5t-21 -30.5t-31 -20t-36.5 -7q-20 0 -37 7t-30.5 20t-21 30.5t-7.5 37.5
t7.5 37.5t21 30t30.5 20t37 7.5q19 0 36.5 -7.5t31 -20t21 -30t7.5 -37.5z" />
    <glyph glyph-name="AE" unicode="&#xc6;" horiz-adv-x="944" 
d="M511 264v378h-11l-245 -378h256zM583 401h276v-66h-276v-269h306v-66h-378v198h-298l-128 -198h-85l461 708h416v-66h-294v-241z" />
    <glyph glyph-name="Ccedilla" unicode="&#xc7;" horiz-adv-x="704" 
d="M363 -60l2 -1q8 3 16.5 5t19.5 2q30 0 53.5 -19.5t23.5 -55.5q0 -23 -10.5 -40t-27 -27.5t-37 -15.5t-40.5 -5q-52 0 -97 24l16 36q34 -18 74 -18q22 0 42 10t20 35q0 4 -2 11t-7 13.5t-15 11t-25 4.5q-14 0 -25 -3t-21 -8l-18 17l52 71q-45 6 -87 23q-67 28 -116.5 77.5
t-77.5 117.5t-28 149t28 149t77.5 117.5t117 77.5t146.5 28q66 0 132 -26t113 -86l-63 -47q-11 17 -30 34t-43.5 30t-52.5 21t-56 8q-68 0 -122 -25t-91.5 -67t-57.5 -97.5t-20 -116.5t20 -116.5t57.5 -97.5t91.5 -67t122 -25q28 0 55.5 5t54 17t50 32.5t43.5 51.5l59 -42
q-18 -27 -44.5 -51t-60.5 -41.5t-73.5 -27.5t-83.5 -10q-11 0 -22 1z" />
    <glyph glyph-name="Egrave" unicode="&#xc8;" horiz-adv-x="593" 
d="M168 66h379v-66h-451v708h439v-66h-367v-241h343v-66h-343v-269zM167 883h91l100 -144h-59z" />
    <glyph glyph-name="Eacute" unicode="&#xc9;" horiz-adv-x="593" 
d="M168 66h379v-66h-451v708h439v-66h-367v-241h343v-66h-343v-269zM295 739h-59l100 144h91z" />
    <glyph glyph-name="Ecircumflex" unicode="&#xca;" horiz-adv-x="593" 
d="M168 66h379v-66h-451v708h439v-66h-367v-241h343v-66h-343v-269zM446 739h-66l-83 108l-83 -108h-66l109 144h80z" />
    <glyph glyph-name="Edieresis" unicode="&#xcb;" horiz-adv-x="593" 
d="M168 66h379v-66h-451v708h439v-66h-367v-241h343v-66h-343v-269zM342 822q0 20 14 35.5t37 15.5t37 -15.5t14 -35.5t-14 -35.5t-37 -15.5t-37 15.5t-14 35.5zM150 822q0 20 14 35.5t37 15.5t37 -15.5t14 -35.5t-14 -35.5t-37 -15.5t-37 15.5t-14 35.5z" />
    <glyph glyph-name="Igrave" unicode="&#xcc;" horiz-adv-x="264" 
d="M168 0h-72v708h72v-708zM2 883h91l100 -144h-59z" />
    <glyph glyph-name="Iacute" unicode="&#xcd;" horiz-adv-x="264" 
d="M168 0h-72v708h72v-708zM130 739h-59l100 144h91z" />
    <glyph glyph-name="Icircumflex" unicode="&#xce;" horiz-adv-x="264" 
d="M168 0h-72v708h72v-708zM281 739h-66l-83 108l-83 -108h-66l109 144h80z" />
    <glyph glyph-name="Idieresis" unicode="&#xcf;" horiz-adv-x="264" 
d="M168 0h-72v708h72v-708zM177 822q0 20 14 35.5t37 15.5t37 -15.5t14 -35.5t-14 -35.5t-37 -15.5t-37 15.5t-14 35.5zM-15 822q0 20 14 35.5t37 15.5t37 -15.5t14 -35.5t-14 -35.5t-37 -15.5t-37 15.5t-14 35.5z" />
    <glyph glyph-name="Eth" unicode="&#xd0;" horiz-adv-x="741" 
d="M158 66h140q81 0 140.5 24.5t99 65t58.5 92t19 106.5t-19 106.5t-58.5 92t-99 65t-140.5 24.5h-140v-241h258v-54h-258v-281zM86 347h-73v54h73v307h235q66 0 132.5 -22t120 -66.5t86.5 -111t33 -154.5q0 -89 -33 -155t-86.5 -110.5t-120 -66.5t-132.5 -22h-235v347z" />
    <glyph glyph-name="Ntilde" unicode="&#xd1;" horiz-adv-x="778" 
d="M608 108h2v600h72v-708h-90l-422 606h-2v-606h-72v708h90zM227 751q3 19 9.5 38t17.5 33.5t26.5 23.5t38.5 9q18 0 36.5 -7t36.5 -16l35 -15.5t32 -7.5q23 0 33.5 15.5t15.5 34.5h43q-3 -20 -9.5 -38.5t-17.5 -33t-27 -23.5t-38 -9q-18 0 -36.5 7.5l-36.5 15.5
q-17 9 -34 16t-33 7q-23 0 -33.5 -15.5t-15.5 -34.5h-43z" />
    <glyph glyph-name="Ograve" unicode="&#xd2;" horiz-adv-x="834" 
d="M708 354q0 61 -20 116.5t-57.5 97.5t-91.5 67t-122 25t-122 -25t-91.5 -67t-57.5 -97.5t-20 -116.5t20 -116.5t57.5 -97.5t91.5 -67t122 -25t122 25t91.5 67t57.5 97.5t20 116.5zM786 354q0 -81 -28 -149t-77.5 -117.5t-117 -77.5t-146.5 -28t-146.5 28t-117 77.5
t-77.5 117.5t-28 149t28 149t77.5 117.5t117 77.5t146.5 28t146.5 -28t117 -77.5t77.5 -117.5t28 -149zM287 883h91l100 -144h-59z" />
    <glyph glyph-name="Oacute" unicode="&#xd3;" horiz-adv-x="834" 
d="M708 354q0 61 -20 116.5t-57.5 97.5t-91.5 67t-122 25t-122 -25t-91.5 -67t-57.5 -97.5t-20 -116.5t20 -116.5t57.5 -97.5t91.5 -67t122 -25t122 25t91.5 67t57.5 97.5t20 116.5zM786 354q0 -81 -28 -149t-77.5 -117.5t-117 -77.5t-146.5 -28t-146.5 28t-117 77.5
t-77.5 117.5t-28 149t28 149t77.5 117.5t117 77.5t146.5 28t146.5 -28t117 -77.5t77.5 -117.5t28 -149zM415 739h-59l100 144h91z" />
    <glyph glyph-name="Ocircumflex" unicode="&#xd4;" horiz-adv-x="834" 
d="M708 354q0 61 -20 116.5t-57.5 97.5t-91.5 67t-122 25t-122 -25t-91.5 -67t-57.5 -97.5t-20 -116.5t20 -116.5t57.5 -97.5t91.5 -67t122 -25t122 25t91.5 67t57.5 97.5t20 116.5zM786 354q0 -81 -28 -149t-77.5 -117.5t-117 -77.5t-146.5 -28t-146.5 28t-117 77.5
t-77.5 117.5t-28 149t28 149t77.5 117.5t117 77.5t146.5 28t146.5 -28t117 -77.5t77.5 -117.5t28 -149zM566 739h-66l-83 108l-83 -108h-66l109 144h80z" />
    <glyph glyph-name="Otilde" unicode="&#xd5;" horiz-adv-x="834" 
d="M708 354q0 61 -20 116.5t-57.5 97.5t-91.5 67t-122 25t-122 -25t-91.5 -67t-57.5 -97.5t-20 -116.5t20 -116.5t57.5 -97.5t91.5 -67t122 -25t122 25t91.5 67t57.5 97.5t20 116.5zM786 354q0 -81 -28 -149t-77.5 -117.5t-117 -77.5t-146.5 -28t-146.5 28t-117 77.5
t-77.5 117.5t-28 149t28 149t77.5 117.5t117 77.5t146.5 28t146.5 -28t117 -77.5t77.5 -117.5t28 -149zM255 751q3 19 9.5 38t17.5 33.5t26.5 23.5t38.5 9q18 0 36.5 -7t36.5 -16l35 -15.5t32 -7.5q23 0 33.5 15.5t15.5 34.5h43q-3 -20 -9.5 -38.5t-17.5 -33t-27 -23.5
t-38 -9q-18 0 -36.5 7.5l-36.5 15.5q-17 9 -34 16t-33 7q-23 0 -33.5 -15.5t-15.5 -34.5h-43z" />
    <glyph glyph-name="Odieresis" unicode="&#xd6;" horiz-adv-x="834" 
d="M708 354q0 61 -20 116.5t-57.5 97.5t-91.5 67t-122 25t-122 -25t-91.5 -67t-57.5 -97.5t-20 -116.5t20 -116.5t57.5 -97.5t91.5 -67t122 -25t122 25t91.5 67t57.5 97.5t20 116.5zM786 354q0 -81 -28 -149t-77.5 -117.5t-117 -77.5t-146.5 -28t-146.5 28t-117 77.5
t-77.5 117.5t-28 149t28 149t77.5 117.5t117 77.5t146.5 28t146.5 -28t117 -77.5t77.5 -117.5t28 -149zM462 822q0 20 14 35.5t37 15.5t37 -15.5t14 -35.5t-14 -35.5t-37 -15.5t-37 15.5t-14 35.5zM270 822q0 20 14 35.5t37 15.5t37 -15.5t14 -35.5t-14 -35.5t-37 -15.5
t-37 15.5t-14 35.5z" />
    <glyph glyph-name="multiply" unicode="&#xd7;" horiz-adv-x="666" 
d="M333 346l158 159l43 -42l-159 -160l159 -159l-43 -43l-158 159l-159 -159l-42 43l159 159l-159 160l42 42z" />
    <glyph glyph-name="Oslash" unicode="&#xd8;" horiz-adv-x="834" 
d="M605 593q-36 32 -83 49.5t-105 17.5q-68 0 -122 -25t-91.5 -67t-57.5 -97.5t-20 -116.5q0 -57 17.5 -109t50.5 -93zM229 115q36 -32 83 -49.5t105 -17.5q68 0 122 25t91.5 67t57.5 97.5t20 116.5q0 57 -17.5 108.5t-50.5 93.5zM690 610q46 -49 71 -114t25 -142
q0 -81 -28 -149t-77.5 -117.5t-117 -77.5t-146.5 -28q-69 0 -129 21.5t-107 59.5l-76 -81l-37 34l76 82q-46 49 -71 114t-25 142q0 81 28 149t77.5 117.5t117 77.5t146.5 28q69 0 128.5 -21t107.5 -60l76 81l37 -34z" />
    <glyph glyph-name="Ugrave" unicode="&#xd9;" horiz-adv-x="686" 
d="M602 264q0 -44 -10.5 -93.5t-39.5 -91.5t-79.5 -69.5t-129.5 -27.5q-80 0 -130 27.5t-79 69.5t-39.5 91.5t-10.5 93.5v444h72v-436q0 -51 10 -87.5t26.5 -61.5t37 -39.5t41 -22.5t39.5 -10.5t33 -2.5q13 0 32.5 2.5t40 10.5t41 22.5t37 39.5t26.5 61.5t10 87.5v436h72
v-444zM213 883h91l100 -144h-59z" />
    <glyph glyph-name="Uacute" unicode="&#xda;" horiz-adv-x="686" 
d="M602 264q0 -44 -10.5 -93.5t-39.5 -91.5t-79.5 -69.5t-129.5 -27.5q-80 0 -130 27.5t-79 69.5t-39.5 91.5t-10.5 93.5v444h72v-436q0 -51 10 -87.5t26.5 -61.5t37 -39.5t41 -22.5t39.5 -10.5t33 -2.5q13 0 32.5 2.5t40 10.5t41 22.5t37 39.5t26.5 61.5t10 87.5v436h72
v-444zM341 739h-59l100 144h91z" />
    <glyph glyph-name="Ucircumflex" unicode="&#xdb;" horiz-adv-x="686" 
d="M602 264q0 -44 -10.5 -93.5t-39.5 -91.5t-79.5 -69.5t-129.5 -27.5q-80 0 -130 27.5t-79 69.5t-39.5 91.5t-10.5 93.5v444h72v-436q0 -51 10 -87.5t26.5 -61.5t37 -39.5t41 -22.5t39.5 -10.5t33 -2.5q13 0 32.5 2.5t40 10.5t41 22.5t37 39.5t26.5 61.5t10 87.5v436h72
v-444zM492 739h-66l-83 108l-83 -108h-66l109 144h80z" />
    <glyph glyph-name="Udieresis" unicode="&#xdc;" horiz-adv-x="686" 
d="M602 264q0 -44 -10.5 -93.5t-39.5 -91.5t-79.5 -69.5t-129.5 -27.5q-80 0 -130 27.5t-79 69.5t-39.5 91.5t-10.5 93.5v444h72v-436q0 -51 10 -87.5t26.5 -61.5t37 -39.5t41 -22.5t39.5 -10.5t33 -2.5q13 0 32.5 2.5t40 10.5t41 22.5t37 39.5t26.5 61.5t10 87.5v436h72
v-444zM388 822q0 20 14 35.5t37 15.5t37 -15.5t14 -35.5t-14 -35.5t-37 -15.5t-37 15.5t-14 35.5zM196 822q0 20 14 35.5t37 15.5t37 -15.5t14 -35.5t-14 -35.5t-37 -15.5t-37 15.5t-14 35.5z" />
    <glyph glyph-name="Yacute" unicode="&#xdd;" horiz-adv-x="574" 
d="M323 0h-72v305l-265 403h90l211 -334l211 334h90l-265 -403v-305zM285 739h-59l100 144h91z" />
    <glyph glyph-name="Thorn" unicode="&#xde;" horiz-adv-x="574" 
d="M168 239h116q28 0 59 3t56 15.5t41.5 37.5t16.5 68t-16.5 67.5t-41.5 37t-56 15.5t-59 3h-116v-247zM96 708h72v-156h160q44 0 82 -11.5t65.5 -35t43.5 -59t16 -83.5t-16 -83.5t-43.5 -59.5t-65.5 -35.5t-82 -11.5h-160v-173h-72v708z" />
    <glyph glyph-name="germandbls" unicode="&#xdf;" horiz-adv-x="593" 
d="M150 0h-66v544q0 44 10.5 84.5t35 71.5t65 49.5t100.5 18.5q40 0 75 -12t60.5 -34.5t40.5 -55.5t15 -75q0 -117 -116 -159v-2q44 -4 76.5 -22t53.5 -46.5t31 -64t10 -74.5q0 -53 -17 -96.5t-48.5 -74.5t-75 -47.5t-96.5 -16.5q-14 0 -29 1.5t-29 6.5v57q12 -3 24 -4
t24 -1q80 0 127.5 46t47.5 130q0 91 -54 133t-147 42v60q30 0 57 6.5t46.5 21t31 38t11.5 57.5q0 60 -36 93t-87 33q-40 0 -67 -15t-43.5 -38t-23.5 -51t-7 -54v-550z" />
    <glyph glyph-name="agrave" unicode="&#xe0;" horiz-adv-x="519" 
d="M338 233q-25 0 -62.5 -2.5t-72 -12t-59 -29.5t-24.5 -55q0 -23 9.5 -39.5t25.5 -27t35.5 -15t39.5 -4.5q36 0 62.5 12t44.5 32.5t26.5 48t8.5 58.5v34h-34zM372 287v12q0 121 -120 121q-82 0 -143 -55l-40 47q66 68 198 68q34 0 65.5 -10t54.5 -30.5t37 -51.5t14 -74
v-209q0 -27 2.5 -56.5t5.5 -48.5h-64q-3 17 -4.5 37t-1.5 39h-2q-29 -47 -68.5 -67.5t-96.5 -20.5q-31 0 -60 8.5t-51.5 26t-36 43t-13.5 59.5q0 57 29.5 89.5t74 48.5t95 20t92.5 4h33zM130 708h91l100 -144h-59z" />
    <glyph glyph-name="aacute" unicode="&#xe1;" horiz-adv-x="519" 
d="M338 233q-25 0 -62.5 -2.5t-72 -12t-59 -29.5t-24.5 -55q0 -23 9.5 -39.5t25.5 -27t35.5 -15t39.5 -4.5q36 0 62.5 12t44.5 32.5t26.5 48t8.5 58.5v34h-34zM372 287v12q0 121 -120 121q-82 0 -143 -55l-40 47q66 68 198 68q34 0 65.5 -10t54.5 -30.5t37 -51.5t14 -74
v-209q0 -27 2.5 -56.5t5.5 -48.5h-64q-3 17 -4.5 37t-1.5 39h-2q-29 -47 -68.5 -67.5t-96.5 -20.5q-31 0 -60 8.5t-51.5 26t-36 43t-13.5 59.5q0 57 29.5 89.5t74 48.5t95 20t92.5 4h33zM258 564h-59l100 144h91z" />
    <glyph glyph-name="acircumflex" unicode="&#xe2;" horiz-adv-x="519" 
d="M338 233q-25 0 -62.5 -2.5t-72 -12t-59 -29.5t-24.5 -55q0 -23 9.5 -39.5t25.5 -27t35.5 -15t39.5 -4.5q36 0 62.5 12t44.5 32.5t26.5 48t8.5 58.5v34h-34zM372 287v12q0 121 -120 121q-82 0 -143 -55l-40 47q66 68 198 68q34 0 65.5 -10t54.5 -30.5t37 -51.5t14 -74
v-209q0 -27 2.5 -56.5t5.5 -48.5h-64q-3 17 -4.5 37t-1.5 39h-2q-29 -47 -68.5 -67.5t-96.5 -20.5q-31 0 -60 8.5t-51.5 26t-36 43t-13.5 59.5q0 57 29.5 89.5t74 48.5t95 20t92.5 4h33zM409 564h-66l-83 108l-83 -108h-66l109 144h80z" />
    <glyph glyph-name="atilde" unicode="&#xe3;" horiz-adv-x="519" 
d="M338 233q-25 0 -62.5 -2.5t-72 -12t-59 -29.5t-24.5 -55q0 -23 9.5 -39.5t25.5 -27t35.5 -15t39.5 -4.5q36 0 62.5 12t44.5 32.5t26.5 48t8.5 58.5v34h-34zM372 287v12q0 121 -120 121q-82 0 -143 -55l-40 47q66 68 198 68q34 0 65.5 -10t54.5 -30.5t37 -51.5t14 -74
v-209q0 -27 2.5 -56.5t5.5 -48.5h-64q-3 17 -4.5 37t-1.5 39h-2q-29 -47 -68.5 -67.5t-96.5 -20.5q-31 0 -60 8.5t-51.5 26t-36 43t-13.5 59.5q0 57 29.5 89.5t74 48.5t95 20t92.5 4h33zM98 576q3 19 9.5 38t17.5 33.5t26.5 23.5t38.5 9q18 0 36.5 -7t36.5 -16l35 -15.5
t32 -7.5q23 0 33.5 15.5t15.5 34.5h43q-3 -20 -9.5 -38.5t-17.5 -33t-27 -23.5t-38 -9q-18 0 -36.5 7.5l-36.5 15.5q-17 9 -34 16t-33 7q-23 0 -33.5 -15.5t-15.5 -34.5h-43z" />
    <glyph glyph-name="adieresis" unicode="&#xe4;" horiz-adv-x="519" 
d="M338 233q-25 0 -62.5 -2.5t-72 -12t-59 -29.5t-24.5 -55q0 -23 9.5 -39.5t25.5 -27t35.5 -15t39.5 -4.5q36 0 62.5 12t44.5 32.5t26.5 48t8.5 58.5v34h-34zM372 287v12q0 121 -120 121q-82 0 -143 -55l-40 47q66 68 198 68q34 0 65.5 -10t54.5 -30.5t37 -51.5t14 -74
v-209q0 -27 2.5 -56.5t5.5 -48.5h-64q-3 17 -4.5 37t-1.5 39h-2q-29 -47 -68.5 -67.5t-96.5 -20.5q-31 0 -60 8.5t-51.5 26t-36 43t-13.5 59.5q0 57 29.5 89.5t74 48.5t95 20t92.5 4h33zM305 647q0 20 14 35.5t37 15.5t37 -15.5t14 -35.5t-14 -35.5t-37 -15.5t-37 15.5
t-14 35.5zM113 647q0 20 14 35.5t37 15.5t37 -15.5t14 -35.5t-14 -35.5t-37 -15.5t-37 15.5t-14 35.5z" />
    <glyph glyph-name="aring" unicode="&#xe5;" horiz-adv-x="519" 
d="M338 233q-25 0 -62.5 -2.5t-72 -12t-59 -29.5t-24.5 -55q0 -23 9.5 -39.5t25.5 -27t35.5 -15t39.5 -4.5q36 0 62.5 12t44.5 32.5t26.5 48t8.5 58.5v34h-34zM372 287v12q0 121 -120 121q-82 0 -143 -55l-40 47q66 68 198 68q34 0 65.5 -10t54.5 -30.5t37 -51.5t14 -74
v-209q0 -27 2.5 -56.5t5.5 -48.5h-64q-3 17 -4.5 37t-1.5 39h-2q-29 -47 -68.5 -67.5t-96.5 -20.5q-31 0 -60 8.5t-51.5 26t-36 43t-13.5 59.5q0 57 29.5 89.5t74 48.5t95 20t92.5 4h33zM320 650q0 25 -17.5 42t-42.5 17t-42.5 -17t-17.5 -42t17.5 -42t42.5 -17t42.5 17
t17.5 42zM356 650q0 -20 -7.5 -37.5t-21 -30.5t-31 -20t-36.5 -7q-20 0 -37 7t-30.5 20t-21 30.5t-7.5 37.5t7.5 37.5t21 30t30.5 20t37 7.5q19 0 36.5 -7.5t31 -20t21 -30t7.5 -37.5z" />
    <glyph glyph-name="ae" unicode="&#xe6;" horiz-adv-x="852" 
d="M738 270q0 33 -10 60.5t-29 47.5t-45.5 31t-59.5 11q-30 0 -55.5 -11.5t-44.5 -31.5t-30 -47.5t-11 -59.5h285zM250 216q-21 0 -44 -4t-42 -13.5t-31.5 -25t-12.5 -39.5q0 -23 9.5 -39.5t25.5 -27t35.5 -15t39.5 -4.5q36 0 65 12t49.5 33t31.5 50t11 64v9h-137zM453 216
v-9q0 -32 9.5 -61t27 -50.5t43 -34.5t57.5 -13q30 0 52.5 6t39.5 16.5t30 24.5t24 29l52 -41q-38 -49 -89.5 -72t-106.5 -23q-53 0 -101 26t-74 83q-35 -60 -84.5 -84.5t-123.5 -24.5q-31 0 -60 8.5t-51.5 26t-36 43t-13.5 59.5q0 47 21 75.5t54 44t73.5 20.5t79.5 5h111v29
q-1 37 -15 60.5t-33 37t-39 18.5t-33 5q-83 0 -142 -56l-41 48q34 32 81.5 50t104.5 18q54 0 96 -26t59 -64q23 42 69.5 66t97.5 24q52 0 91.5 -18t66.5 -49.5t40.5 -74.5t13.5 -92v-30h-351z" />
    <glyph glyph-name="ccedilla" unicode="&#xe7;" horiz-adv-x="482" 
d="M252 -60l2 -1q8 3 16.5 5t19.5 2q30 0 53.5 -19.5t23.5 -55.5q0 -23 -10.5 -40t-27 -27.5t-37 -15.5t-40.5 -5q-52 0 -97 24l16 36q34 -18 74 -18q22 0 42 10t20 35q0 4 -2 11t-7 13.5t-15 11t-25 4.5q-14 0 -25 -3t-21 -8l-18 17l55 75q-30 4 -56 14q-46 19 -78.5 52
t-49.5 78.5t-17 98.5t17 98.5t49.5 78.5t78.5 51.5t103 17.5q48 -1 92 -20.5t79 -60.5l-54 -41q-17 26 -47.5 44t-69.5 18q-41 1 -73.5 -13t-55.5 -39t-35 -59.5t-12 -74.5t12 -74.5t35 -59.5t55.5 -39t73.5 -13q39 0 69.5 18t47.5 44l54 -41q-35 -41 -79 -60.5t-92 -20.5
h-8z" />
    <glyph glyph-name="egrave" unicode="&#xe8;" 
d="M436 270q0 67 -40 108.5t-112 41.5q-32 0 -62 -12.5t-52.5 -33.5t-36 -48t-13.5 -56h316zM118 216q3 -35 17 -66t37 -53.5t53 -35.5t65 -13q53 0 91.5 24.5t58.5 56.5l51 -42q-42 -53 -92.5 -76t-108.5 -23q-52 0 -96.5 18.5t-76.5 51.5t-50.5 78t-18.5 98t18 98t50 78
t75 51.5t93 18.5q53 0 95 -19t70.5 -50.5t43.5 -74t15 -90.5v-30h-390zM148 708h91l100 -144h-59z" />
    <glyph glyph-name="eacute" unicode="&#xe9;" 
d="M436 270q0 67 -40 108.5t-112 41.5q-32 0 -62 -12.5t-52.5 -33.5t-36 -48t-13.5 -56h316zM118 216q3 -35 17 -66t37 -53.5t53 -35.5t65 -13q53 0 91.5 24.5t58.5 56.5l51 -42q-42 -53 -92.5 -76t-108.5 -23q-52 0 -96.5 18.5t-76.5 51.5t-50.5 78t-18.5 98t18 98t50 78
t75 51.5t93 18.5q53 0 95 -19t70.5 -50.5t43.5 -74t15 -90.5v-30h-390zM276 564h-59l100 144h91z" />
    <glyph glyph-name="ecircumflex" unicode="&#xea;" 
d="M436 270q0 67 -40 108.5t-112 41.5q-32 0 -62 -12.5t-52.5 -33.5t-36 -48t-13.5 -56h316zM118 216q3 -35 17 -66t37 -53.5t53 -35.5t65 -13q53 0 91.5 24.5t58.5 56.5l51 -42q-42 -53 -92.5 -76t-108.5 -23q-52 0 -96.5 18.5t-76.5 51.5t-50.5 78t-18.5 98t18 98t50 78
t75 51.5t93 18.5q53 0 95 -19t70.5 -50.5t43.5 -74t15 -90.5v-30h-390zM427 564h-66l-83 108l-83 -108h-66l109 144h80z" />
    <glyph glyph-name="edieresis" unicode="&#xeb;" 
d="M436 270q0 67 -40 108.5t-112 41.5q-32 0 -62 -12.5t-52.5 -33.5t-36 -48t-13.5 -56h316zM118 216q3 -35 17 -66t37 -53.5t53 -35.5t65 -13q53 0 91.5 24.5t58.5 56.5l51 -42q-42 -53 -92.5 -76t-108.5 -23q-52 0 -96.5 18.5t-76.5 51.5t-50.5 78t-18.5 98t18 98t50 78
t75 51.5t93 18.5q53 0 95 -19t70.5 -50.5t43.5 -74t15 -90.5v-30h-390zM323 647q0 20 14 35.5t37 15.5t37 -15.5t14 -35.5t-14 -35.5t-37 -15.5t-37 15.5t-14 35.5zM131 647q0 20 14 35.5t37 15.5t37 -15.5t14 -35.5t-14 -35.5t-37 -15.5t-37 15.5t-14 35.5z" />
    <glyph glyph-name="igrave" unicode="&#xec;" horiz-adv-x="240" 
d="M153 0h-66v468h66v-468zM-10 708h91l100 -144h-59z" />
    <glyph glyph-name="iacute" unicode="&#xed;" horiz-adv-x="240" 
d="M153 0h-66v468h66v-468zM118 564h-59l100 144h91z" />
    <glyph glyph-name="icircumflex" unicode="&#xee;" horiz-adv-x="240" 
d="M153 0h-66v468h66v-468zM269 564h-66l-83 108l-83 -108h-66l109 144h80z" />
    <glyph glyph-name="idieresis" unicode="&#xef;" horiz-adv-x="240" 
d="M153 0h-66v468h66v-468zM165 647q0 20 14 35.5t37 15.5t37 -15.5t14 -35.5t-14 -35.5t-37 -15.5t-37 15.5t-14 35.5zM-27 647q0 20 14 35.5t37 15.5t37 -15.5t14 -35.5t-14 -35.5t-37 -15.5t-37 15.5t-14 35.5z" />
    <glyph glyph-name="eth" unicode="&#xf0;" horiz-adv-x="593" 
d="M352 660q46 -46 82 -93t61 -96.5t38 -103.5t12 -113q0 -45 -12 -92t-40.5 -86t-76.5 -63.5t-120 -24.5q-54 0 -99.5 18.5t-78.5 51.5t-51.5 78t-18.5 98t18.5 98t51.5 78t78.5 51.5t99.5 18.5q44 0 79 -14t71 -44l2 2q-20 37 -38.5 65.5t-37.5 52.5t-39.5 45t-43.5 41
l-110 -57l-36 36l108 56l-49.5 44t-45.5 35l60 37l50 -41.5l47 -41.5l102 53l40 -35zM120 234q0 -39 12.5 -73t35 -59t55 -39.5t73.5 -14.5t73.5 14.5t55.5 39.5t35.5 59t12.5 73t-12.5 73t-35.5 59t-55.5 39.5t-73.5 14.5t-73.5 -14.5t-55 -39.5t-35 -59t-12.5 -73z" />
    <glyph glyph-name="ntilde" unicode="&#xf1;" 
d="M135 468q2 -19 2.5 -37.5t0.5 -37.5h2q11 19 28 35t38 27.5t44.5 18t46.5 6.5q90 0 133 -47.5t43 -135.5v-297h-66v259q0 78 -27 119.5t-100 41.5q-5 0 -28 -4t-48.5 -22t-45.5 -54t-20 -100v-240h-66v365q0 19 -1.5 48t-3.5 55h68zM116 576q3 19 9.5 38t17.5 33.5
t26.5 23.5t38.5 9q18 0 36.5 -7t36.5 -16l35 -15.5t32 -7.5q23 0 33.5 15.5t15.5 34.5h43q-3 -20 -9.5 -38.5t-17.5 -33t-27 -23.5t-38 -9q-18 0 -36.5 7.5l-36.5 15.5q-17 9 -34 16t-33 7q-23 0 -33.5 -15.5t-15.5 -34.5h-43z" />
    <glyph glyph-name="ograve" unicode="&#xf2;" horiz-adv-x="593" 
d="M473 234q0 39 -12.5 73t-35.5 59t-55.5 39.5t-73.5 14.5t-73.5 -14.5t-55 -39.5t-35 -59t-12.5 -73t12.5 -73t35 -59t55 -39.5t73.5 -14.5t73.5 14.5t55.5 39.5t35.5 59t12.5 73zM545 234q0 -53 -18.5 -98t-51.5 -78t-78.5 -51.5t-100.5 -18.5q-54 0 -99.5 18.5
t-78.5 51.5t-51.5 78t-18.5 98t18.5 98t51.5 78t78.5 51.5t99.5 18.5q55 0 100.5 -18.5t78.5 -51.5t51.5 -78t18.5 -98zM167 708h91l100 -144h-59z" />
    <glyph glyph-name="oacute" unicode="&#xf3;" horiz-adv-x="593" 
d="M473 234q0 39 -12.5 73t-35.5 59t-55.5 39.5t-73.5 14.5t-73.5 -14.5t-55 -39.5t-35 -59t-12.5 -73t12.5 -73t35 -59t55 -39.5t73.5 -14.5t73.5 14.5t55.5 39.5t35.5 59t12.5 73zM545 234q0 -53 -18.5 -98t-51.5 -78t-78.5 -51.5t-100.5 -18.5q-54 0 -99.5 18.5
t-78.5 51.5t-51.5 78t-18.5 98t18.5 98t51.5 78t78.5 51.5t99.5 18.5q55 0 100.5 -18.5t78.5 -51.5t51.5 -78t18.5 -98zM295 564h-59l100 144h91z" />
    <glyph glyph-name="ocircumflex" unicode="&#xf4;" horiz-adv-x="593" 
d="M473 234q0 39 -12.5 73t-35.5 59t-55.5 39.5t-73.5 14.5t-73.5 -14.5t-55 -39.5t-35 -59t-12.5 -73t12.5 -73t35 -59t55 -39.5t73.5 -14.5t73.5 14.5t55.5 39.5t35.5 59t12.5 73zM545 234q0 -53 -18.5 -98t-51.5 -78t-78.5 -51.5t-100.5 -18.5q-54 0 -99.5 18.5
t-78.5 51.5t-51.5 78t-18.5 98t18.5 98t51.5 78t78.5 51.5t99.5 18.5q55 0 100.5 -18.5t78.5 -51.5t51.5 -78t18.5 -98zM446 564h-66l-83 108l-83 -108h-66l109 144h80z" />
    <glyph glyph-name="otilde" unicode="&#xf5;" horiz-adv-x="593" 
d="M473 234q0 39 -12.5 73t-35.5 59t-55.5 39.5t-73.5 14.5t-73.5 -14.5t-55 -39.5t-35 -59t-12.5 -73t12.5 -73t35 -59t55 -39.5t73.5 -14.5t73.5 14.5t55.5 39.5t35.5 59t12.5 73zM545 234q0 -53 -18.5 -98t-51.5 -78t-78.5 -51.5t-100.5 -18.5q-54 0 -99.5 18.5
t-78.5 51.5t-51.5 78t-18.5 98t18.5 98t51.5 78t78.5 51.5t99.5 18.5q55 0 100.5 -18.5t78.5 -51.5t51.5 -78t18.5 -98zM135 576q3 19 9.5 38t17.5 33.5t26.5 23.5t38.5 9q18 0 36.5 -7t36.5 -16l35 -15.5t32 -7.5q23 0 33.5 15.5t15.5 34.5h43q-3 -20 -9.5 -38.5t-17.5 -33
t-27 -23.5t-38 -9q-18 0 -36.5 7.5l-36.5 15.5q-17 9 -34 16t-33 7q-23 0 -33.5 -15.5t-15.5 -34.5h-43z" />
    <glyph glyph-name="odieresis" unicode="&#xf6;" horiz-adv-x="593" 
d="M473 234q0 39 -12.5 73t-35.5 59t-55.5 39.5t-73.5 14.5t-73.5 -14.5t-55 -39.5t-35 -59t-12.5 -73t12.5 -73t35 -59t55 -39.5t73.5 -14.5t73.5 14.5t55.5 39.5t35.5 59t12.5 73zM545 234q0 -53 -18.5 -98t-51.5 -78t-78.5 -51.5t-100.5 -18.5q-54 0 -99.5 18.5
t-78.5 51.5t-51.5 78t-18.5 98t18.5 98t51.5 78t78.5 51.5t99.5 18.5q55 0 100.5 -18.5t78.5 -51.5t51.5 -78t18.5 -98zM342 647q0 20 14 35.5t37 15.5t37 -15.5t14 -35.5t-14 -35.5t-37 -15.5t-37 15.5t-14 35.5zM150 647q0 20 14 35.5t37 15.5t37 -15.5t14 -35.5
t-14 -35.5t-37 -15.5t-37 15.5t-14 35.5z" />
    <glyph glyph-name="divide" unicode="&#xf7;" horiz-adv-x="666" 
d="M387 141q0 -21 -15 -37.5t-39 -16.5t-39 16.5t-15 37.5t15 37.5t39 16.5t39 -16.5t15 -37.5zM387 465q0 -21 -15 -37.5t-39 -16.5t-39 16.5t-15 37.5t15 37.5t39 16.5t39 -16.5t15 -37.5zM588 273h-510v60h510v-60z" />
    <glyph glyph-name="oslash" unicode="&#xf8;" horiz-adv-x="593" 
d="M487 397q27 -31 42.5 -72.5t15.5 -90.5q0 -53 -18.5 -98t-51.5 -78t-78.5 -51.5t-100.5 -18.5q-48 0 -87.5 14t-69.5 38l-67 -68l-32 31l66 68q-28 32 -43 73.5t-15 89.5q0 53 18.5 98t51.5 78t78.5 51.5t99.5 18.5q47 0 87 -13.5t72 -38.5l66 68l32 -31zM409 381
q-45 39 -113 39q-41 0 -73.5 -14.5t-55 -39.5t-35 -59t-12.5 -73q0 -68 34 -114zM184 86q22 -18 50 -28t62 -10q41 0 73.5 14.5t55.5 39.5t35.5 59t12.5 73q0 65 -34 114z" />
    <glyph glyph-name="ugrave" unicode="&#xf9;" 
d="M410 0q-2 19 -2.5 37.5t-0.5 37.5h-2q-11 -19 -28 -35t-38 -27.5t-44.5 -18t-46.5 -6.5q-90 0 -133 47.5t-43 135.5v297h66v-259q0 -39 6 -69t20.5 -50.5t39 -31t61.5 -10.5q5 0 28 4t48.5 22t45.5 54t20 100v240h66v-365q0 -19 1.5 -48t3.5 -55h-68zM148 708h91
l100 -144h-59z" />
    <glyph glyph-name="uacute" unicode="&#xfa;" 
d="M410 0q-2 19 -2.5 37.5t-0.5 37.5h-2q-11 -19 -28 -35t-38 -27.5t-44.5 -18t-46.5 -6.5q-90 0 -133 47.5t-43 135.5v297h66v-259q0 -39 6 -69t20.5 -50.5t39 -31t61.5 -10.5q5 0 28 4t48.5 22t45.5 54t20 100v240h66v-365q0 -19 1.5 -48t3.5 -55h-68zM276 564h-59
l100 144h91z" />
    <glyph glyph-name="ucircumflex" unicode="&#xfb;" 
d="M410 0q-2 19 -2.5 37.5t-0.5 37.5h-2q-11 -19 -28 -35t-38 -27.5t-44.5 -18t-46.5 -6.5q-90 0 -133 47.5t-43 135.5v297h66v-259q0 -39 6 -69t20.5 -50.5t39 -31t61.5 -10.5q5 0 28 4t48.5 22t45.5 54t20 100v240h66v-365q0 -19 1.5 -48t3.5 -55h-68zM427 564h-66
l-83 108l-83 -108h-66l109 144h80z" />
    <glyph glyph-name="udieresis" unicode="&#xfc;" 
d="M410 0q-2 19 -2.5 37.5t-0.5 37.5h-2q-11 -19 -28 -35t-38 -27.5t-44.5 -18t-46.5 -6.5q-90 0 -133 47.5t-43 135.5v297h66v-259q0 -39 6 -69t20.5 -50.5t39 -31t61.5 -10.5q5 0 28 4t48.5 22t45.5 54t20 100v240h66v-365q0 -19 1.5 -48t3.5 -55h-68zM323 647
q0 20 14 35.5t37 15.5t37 -15.5t14 -35.5t-14 -35.5t-37 -15.5t-37 15.5t-14 35.5zM131 647q0 20 14 35.5t37 15.5t37 -15.5t14 -35.5t-14 -35.5t-37 -15.5t-37 15.5t-14 35.5z" />
    <glyph glyph-name="yacute" unicode="&#xfd;" horiz-adv-x="482" 
d="M246 81l143 387h80l-234 -590q-21 -54 -53.5 -86t-93.5 -32q-15 0 -30.5 1t-30.5 6l7 64q21 -11 50 -11q35 0 55 22t35 62l34 90l-192 474h83zM239 564h-59l100 144h91z" />
    <glyph glyph-name="thorn" unicode="&#xfe;" horiz-adv-x="611" 
d="M499 234q0 39 -12.5 73t-35.5 59t-55.5 39.5t-73.5 14.5t-75 -14.5t-59 -39.5t-39 -59t-14 -73t13 -73t37.5 -59t59 -39.5t77.5 -14.5q41 0 73.5 14.5t55.5 39.5t35.5 59t12.5 73zM72 756h66v-375h2q22 30 46 49.5t47.5 30.5t46 15t42.5 4q55 0 100.5 -18.5t78.5 -51.5
t51.5 -78t18.5 -98t-18.5 -98t-51.5 -78t-78.5 -51.5t-100.5 -18.5q-23 0 -48.5 5t-49.5 16t-46 28t-38 41h-2v-306h-66v984z" />
    <glyph glyph-name="ydieresis" unicode="&#xff;" horiz-adv-x="482" 
d="M246 81l143 387h80l-234 -590q-21 -54 -53.5 -86t-93.5 -32q-15 0 -30.5 1t-30.5 6l7 64q21 -11 50 -11q35 0 55 22t35 62l34 90l-192 474h83zM286 647q0 20 14 35.5t37 15.5t37 -15.5t14 -35.5t-14 -35.5t-37 -15.5t-37 15.5t-14 35.5zM94 647q0 20 14 35.5t37 15.5
t37 -15.5t14 -35.5t-14 -35.5t-37 -15.5t-37 15.5t-14 35.5z" />
    <glyph glyph-name="Amacron" unicode="&#x100;" horiz-adv-x="686" 
d="M189 252h307l-153 372zM84 0h-84l308 708h70l308 -708h-84l-78 186h-362zM478 791h-270v54h270v-54z" />
    <glyph glyph-name="amacron" unicode="&#x101;" horiz-adv-x="519" 
d="M338 233q-25 0 -62.5 -2.5t-72 -12t-59 -29.5t-24.5 -55q0 -23 9.5 -39.5t25.5 -27t35.5 -15t39.5 -4.5q36 0 62.5 12t44.5 32.5t26.5 48t8.5 58.5v34h-34zM372 287v12q0 121 -120 121q-82 0 -143 -55l-40 47q66 68 198 68q34 0 65.5 -10t54.5 -30.5t37 -51.5t14 -74
v-209q0 -27 2.5 -56.5t5.5 -48.5h-64q-3 17 -4.5 37t-1.5 39h-2q-29 -47 -68.5 -67.5t-96.5 -20.5q-31 0 -60 8.5t-51.5 26t-36 43t-13.5 59.5q0 57 29.5 89.5t74 48.5t95 20t92.5 4h33zM381 600h-270v54h270v-54z" />
    <glyph glyph-name="Abreve" unicode="&#x102;" horiz-adv-x="686" 
d="M189 252h307l-153 372zM84 0h-84l308 708h70l308 -708h-84l-78 186h-362zM490 898q-4 -63 -44.5 -97.5t-102.5 -34.5t-102.5 34.5t-44.5 97.5h44q7 -39 36 -58.5t67 -19.5t67 19.5t36 58.5h44z" />
    <glyph glyph-name="abreve" unicode="&#x103;" horiz-adv-x="519" 
d="M338 233q-25 0 -62.5 -2.5t-72 -12t-59 -29.5t-24.5 -55q0 -23 9.5 -39.5t25.5 -27t35.5 -15t39.5 -4.5q36 0 62.5 12t44.5 32.5t26.5 48t8.5 58.5v34h-34zM372 287v12q0 121 -120 121q-82 0 -143 -55l-40 47q66 68 198 68q34 0 65.5 -10t54.5 -30.5t37 -51.5t14 -74
v-209q0 -27 2.5 -56.5t5.5 -48.5h-64q-3 17 -4.5 37t-1.5 39h-2q-29 -47 -68.5 -67.5t-96.5 -20.5q-31 0 -60 8.5t-51.5 26t-36 43t-13.5 59.5q0 57 29.5 89.5t74 48.5t95 20t92.5 4h33zM393 708q-4 -63 -44.5 -97.5t-102.5 -34.5t-102.5 34.5t-44.5 97.5h44q7 -39 36 -58.5
t67 -19.5t67 19.5t36 58.5h44z" />
    <glyph glyph-name="Aogonek" unicode="&#x104;" horiz-adv-x="686" 
d="M700 -181q-17 -17 -41 -26.5t-49 -9.5q-18 0 -34 6t-28.5 17.5t-20 27t-7.5 34.5q0 21 8 40.5t21 37t29 33.5q12 12 24 21l-78 186h-362l-78 -186h-84l308 708h70l308 -708h-35q-33 -33 -51 -58q-20 -28 -20 -57q0 -21 15 -34.5t35 -13.5q14 0 27.5 5.5t23.5 16.5z
M189 252h307l-153 372z" />
    <glyph glyph-name="aogonek" unicode="&#x105;" horiz-adv-x="519" 
d="M482 -181q-17 -17 -41 -26.5t-49 -9.5q-18 0 -34 6t-28.5 17.5t-20 27t-7.5 34.5q0 21 8 40.5t21 37t29 33.5l23 21h-1q-3 17 -4.5 37t-1.5 39h-2q-29 -47 -68.5 -67.5t-96.5 -20.5q-31 0 -60 8.5t-51.5 26t-36 43t-13.5 59.5q0 57 29.5 89.5t74 48.5t95 20t92.5 4h33v12
q0 121 -120 121q-82 0 -143 -55l-40 47q66 68 198 68q34 0 65.5 -10t54.5 -30.5t37 -51.5t14 -74v-209q0 -27 2.5 -56.5t5.5 -48.5h-13q-33 -33 -51 -58q-20 -28 -20 -57q0 -21 15 -34.5t35 -13.5q14 0 27.5 5.5t23.5 16.5zM338 233q-25 0 -62.5 -2.5t-72 -12t-59 -29.5
t-24.5 -55q0 -23 9.5 -39.5t25.5 -27t35.5 -15t39.5 -4.5q36 0 62.5 12t44.5 32.5t26.5 48t8.5 58.5v34h-34z" />
    <glyph glyph-name="Cacute" unicode="&#x106;" horiz-adv-x="704" 
d="M679 112q-18 -27 -44.5 -51t-60.5 -41.5t-73.5 -27.5t-83.5 -10q-79 0 -146.5 28t-117 77.5t-77.5 117.5t-28 149t28 149t77.5 117.5t117 77.5t146.5 28q66 0 132 -26t113 -86l-63 -47q-11 17 -30 34t-43.5 30t-52.5 21t-56 8q-68 0 -122 -25t-91.5 -67t-57.5 -97.5
t-20 -116.5t20 -116.5t57.5 -97.5t91.5 -67t122 -25q28 0 55.5 5t54 17t50 32.5t43.5 51.5zM431 760h-59l100 144h91z" />
    <glyph glyph-name="cacute" unicode="&#x107;" horiz-adv-x="482" 
d="M413 358q-17 26 -47.5 44t-69.5 18q-41 1 -73.5 -13t-55.5 -39t-35 -59.5t-12 -74.5t12 -74.5t35 -59.5t55.5 -39t73.5 -13q39 0 69.5 18t47.5 44l54 -41q-35 -41 -79 -60.5t-92 -20.5q-57 -1 -103 17.5t-78.5 51.5t-49.5 78.5t-17 98.5t17 98.5t49.5 78.5t78.5 51.5
t103 17.5q48 -1 92 -20.5t79 -60.5zM297 564h-59l100 144h91z" />
    <glyph glyph-name="Ccircumflex" unicode="&#x108;" horiz-adv-x="704" 
d="M679 112q-18 -27 -44.5 -51t-60.5 -41.5t-73.5 -27.5t-83.5 -10q-79 0 -146.5 28t-117 77.5t-77.5 117.5t-28 149t28 149t77.5 117.5t117 77.5t146.5 28q66 0 132 -26t113 -86l-63 -47q-11 17 -30 34t-43.5 30t-52.5 21t-56 8q-68 0 -122 -25t-91.5 -67t-57.5 -97.5
t-20 -116.5t20 -116.5t57.5 -97.5t91.5 -67t122 -25q28 0 55.5 5t54 17t50 32.5t43.5 51.5zM560 760h-66l-83 108l-83 -108h-66l109 144h80z" />
    <glyph glyph-name="ccircumflex" unicode="&#x109;" horiz-adv-x="482" 
d="M413 358q-17 26 -47.5 44t-69.5 18q-41 1 -73.5 -13t-55.5 -39t-35 -59.5t-12 -74.5t12 -74.5t35 -59.5t55.5 -39t73.5 -13q39 0 69.5 18t47.5 44l54 -41q-35 -41 -79 -60.5t-92 -20.5q-57 -1 -103 17.5t-78.5 51.5t-49.5 78.5t-17 98.5t17 98.5t49.5 78.5t78.5 51.5
t103 17.5q48 -1 92 -20.5t79 -60.5zM440 564h-66l-83 108l-83 -108h-66l109 144h80z" />
    <glyph glyph-name="Cdotaccent" unicode="&#x10a;" horiz-adv-x="704" 
d="M679 112q-18 -27 -44.5 -51t-60.5 -41.5t-73.5 -27.5t-83.5 -10q-79 0 -146.5 28t-117 77.5t-77.5 117.5t-28 149t28 149t77.5 117.5t117 77.5t146.5 28q66 0 132 -26t113 -86l-63 -47q-11 17 -30 34t-43.5 30t-52.5 21t-56 8q-68 0 -122 -25t-91.5 -67t-57.5 -97.5
t-20 -116.5t20 -116.5t57.5 -97.5t91.5 -67t122 -25q28 0 55.5 5t54 17t50 32.5t43.5 51.5zM358 817q0 20 14 35.5t37 15.5t37 -15.5t14 -35.5t-14 -35.5t-37 -15.5t-37 15.5t-14 35.5z" />
    <glyph glyph-name="cdotaccent" unicode="&#x10b;" horiz-adv-x="482" 
d="M413 358q-17 26 -47.5 44t-69.5 18q-41 1 -73.5 -13t-55.5 -39t-35 -59.5t-12 -74.5t12 -74.5t35 -59.5t55.5 -39t73.5 -13q39 0 69.5 18t47.5 44l54 -41q-35 -41 -79 -60.5t-92 -20.5q-57 -1 -103 17.5t-78.5 51.5t-49.5 78.5t-17 98.5t17 98.5t49.5 78.5t78.5 51.5
t103 17.5q48 -1 92 -20.5t79 -60.5zM232 657q0 20 14 35.5t37 15.5t37 -15.5t14 -35.5t-14 -35.5t-37 -15.5t-37 15.5t-14 35.5z" />
    <glyph glyph-name="Ccaron" unicode="&#x10c;" horiz-adv-x="704" 
d="M679 112q-18 -27 -44.5 -51t-60.5 -41.5t-73.5 -27.5t-83.5 -10q-79 0 -146.5 28t-117 77.5t-77.5 117.5t-28 149t28 149t77.5 117.5t117 77.5t146.5 28q66 0 132 -26t113 -86l-63 -47q-11 17 -30 34t-43.5 30t-52.5 21t-56 8q-68 0 -122 -25t-91.5 -67t-57.5 -97.5
t-20 -116.5t20 -116.5t57.5 -97.5t91.5 -67t122 -25q28 0 55.5 5t54 17t50 32.5t43.5 51.5zM441 760h-80l-109 144h66l83 -108l83 108h66z" />
    <glyph glyph-name="ccaron" unicode="&#x10d;" horiz-adv-x="482" 
d="M413 358q-17 26 -47.5 44t-69.5 18q-41 1 -73.5 -13t-55.5 -39t-35 -59.5t-12 -74.5t12 -74.5t35 -59.5t55.5 -39t73.5 -13q39 0 69.5 18t47.5 44l54 -41q-35 -41 -79 -60.5t-92 -20.5q-57 -1 -103 17.5t-78.5 51.5t-49.5 78.5t-17 98.5t17 98.5t49.5 78.5t78.5 51.5
t103 17.5q48 -1 92 -20.5t79 -60.5zM327 564h-80l-109 144h66l83 -108l83 108h66z" />
    <glyph glyph-name="Dcaron" unicode="&#x10e;" horiz-adv-x="741" 
d="M158 66h140q81 0 140.5 24.5t99 65t58.5 92t19 106.5t-19 106.5t-58.5 92t-99 65t-140.5 24.5h-140v-576zM86 708h235q66 0 132.5 -22t120 -66.5t86.5 -111t33 -154.5q0 -89 -33 -155t-86.5 -110.5t-120 -66.5t-132.5 -22h-235v708zM384 760h-80l-109 144h66l83 -108
l83 108h66z" />
    <glyph glyph-name="dcaron" unicode="&#x10f;" horiz-adv-x="611" 
d="M112 234q0 -39 12.5 -73t35.5 -59t55.5 -39.5t73.5 -14.5q40 0 74.5 14.5t59.5 39.5t39 59t14 73t-14 73t-39 59t-59.5 39.5t-74.5 14.5q-41 0 -73.5 -14.5t-55.5 -39.5t-35.5 -59t-12.5 -73zM539 0h-66v78h-2q-16 -24 -38 -41t-46 -28t-49.5 -16t-48.5 -5
q-55 0 -100.5 18.5t-78.5 51.5t-51.5 78t-18.5 98t18.5 98t51.5 78t78.5 51.5t100.5 18.5q23 0 48.5 -5t49.5 -16t46 -28t38 -41h2v366h66v-756zM657 523h-57l62 185h71z" />
    <glyph glyph-name="Dcroat" unicode="&#x110;" horiz-adv-x="741" 
d="M158 66h140q81 0 140.5 24.5t99 65t58.5 92t19 106.5t-19 106.5t-58.5 92t-99 65t-140.5 24.5h-140v-241h258v-54h-258v-281zM86 347h-73v54h73v307h235q66 0 132.5 -22t120 -66.5t86.5 -111t33 -154.5q0 -89 -33 -155t-86.5 -110.5t-120 -66.5t-132.5 -22h-235v347z" />
    <glyph glyph-name="dcroat" unicode="&#x111;" horiz-adv-x="611" 
d="M593 560h-54v-560h-66v78h-2q-16 -24 -38 -41t-46 -28t-49.5 -16t-48.5 -5q-55 0 -100.5 18.5t-78.5 51.5t-51.5 78t-18.5 98t18.5 98t51.5 78t78.5 51.5t100.5 18.5q23 0 48.5 -5t49.5 -16t46 -28t38 -41h2v170h-199v52h199v144h66v-144h54v-52zM112 234q0 -39 12.5 -73
t35.5 -59t55.5 -39.5t73.5 -14.5q40 0 74.5 14.5t59.5 39.5t39 59t14 73t-14 73t-39 59t-59.5 39.5t-74.5 14.5q-41 0 -73.5 -14.5t-55.5 -39.5t-35.5 -59t-12.5 -73z" />
    <glyph glyph-name="Emacron" unicode="&#x112;" horiz-adv-x="593" 
d="M168 66h379v-66h-451v708h439v-66h-367v-241h343v-66h-343v-269zM455 791h-270v54h270v-54z" />
    <glyph glyph-name="emacron" unicode="&#x113;" 
d="M436 270q0 67 -40 108.5t-112 41.5q-32 0 -62 -12.5t-52.5 -33.5t-36 -48t-13.5 -56h316zM118 216q3 -35 17 -66t37 -53.5t53 -35.5t65 -13q53 0 91.5 24.5t58.5 56.5l51 -42q-42 -53 -92.5 -76t-108.5 -23q-52 0 -96.5 18.5t-76.5 51.5t-50.5 78t-18.5 98t18 98t50 78
t75 51.5t93 18.5q53 0 95 -19t70.5 -50.5t43.5 -74t15 -90.5v-30h-390zM416 600h-270v54h270v-54z" />
    <glyph glyph-name="Ebreve" unicode="&#x114;" horiz-adv-x="593" 
d="M168 66h379v-66h-451v708h439v-66h-367v-241h343v-66h-343v-269zM469 898q-4 -63 -44.5 -97.5t-102.5 -34.5t-102.5 34.5t-44.5 97.5h44q7 -39 36 -58.5t67 -19.5t67 19.5t36 58.5h44z" />
    <glyph glyph-name="ebreve" unicode="&#x115;" 
d="M436 270q0 67 -40 108.5t-112 41.5q-32 0 -62 -12.5t-52.5 -33.5t-36 -48t-13.5 -56h316zM118 216q3 -35 17 -66t37 -53.5t53 -35.5t65 -13q53 0 91.5 24.5t58.5 56.5l51 -42q-42 -53 -92.5 -76t-108.5 -23q-52 0 -96.5 18.5t-76.5 51.5t-50.5 78t-18.5 98t18 98t50 78
t75 51.5t93 18.5q53 0 95 -19t70.5 -50.5t43.5 -74t15 -90.5v-30h-390zM434 708q-4 -63 -44.5 -97.5t-102.5 -34.5t-102.5 34.5t-44.5 97.5h44q7 -39 36 -58.5t67 -19.5t67 19.5t36 58.5h44z" />
    <glyph glyph-name="Edotaccent" unicode="&#x116;" horiz-adv-x="593" 
d="M168 66h379v-66h-451v708h439v-66h-367v-241h343v-66h-343v-269zM279 817q0 20 14 35.5t37 15.5t37 -15.5t14 -35.5t-14 -35.5t-37 -15.5t-37 15.5t-14 35.5z" />
    <glyph glyph-name="edotaccent" unicode="&#x117;" 
d="M436 270q0 67 -40 108.5t-112 41.5q-32 0 -62 -12.5t-52.5 -33.5t-36 -48t-13.5 -56h316zM118 216q3 -35 17 -66t37 -53.5t53 -35.5t65 -13q53 0 91.5 24.5t58.5 56.5l51 -42q-42 -53 -92.5 -76t-108.5 -23q-52 0 -96.5 18.5t-76.5 51.5t-50.5 78t-18.5 98t18 98t50 78
t75 51.5t93 18.5q53 0 95 -19t70.5 -50.5t43.5 -74t15 -90.5v-30h-390zM238 657q0 20 14 35.5t37 15.5t37 -15.5t14 -35.5t-14 -35.5t-37 -15.5t-37 15.5t-14 35.5z" />
    <glyph glyph-name="Eogonek" unicode="&#x118;" horiz-adv-x="593" 
d="M580 -181q-17 -17 -41 -26.5t-49 -9.5q-18 0 -34 6t-28.5 17.5t-20 27t-7.5 34.5q0 21 8 40.5t21 37t29 33.5l23 21h-385v708h439v-66h-367v-241h343v-66h-343v-269h379v-66h-16q-33 -33 -51 -58q-20 -28 -20 -57q0 -21 15 -34.5t35 -13.5q14 0 27.5 5.5t23.5 16.5z" />
    <glyph glyph-name="eogonek" unicode="&#x119;" 
d="M390 -181q-17 -17 -41 -26.5t-49 -9.5q-18 0 -34 6t-28.5 17.5t-20 27t-7.5 34.5q0 21 8 40.5t21 37t29 33.5q5 5 10 9q-45 2 -85 18q-44 19 -76 52t-50.5 78t-18.5 98t18 98t50 78t75 51.5t93 18.5q53 0 95 -19t70.5 -50.5t43.5 -74t15 -90.5v-30h-390q3 -35 17 -66
t37 -53.5t53 -35.5t65 -13q53 0 91.5 24.5t58.5 56.5l51 -42q-42 -53 -93 -76q-31 -14 -66 -19q-26 -28 -42 -50q-20 -28 -20 -57q0 -21 15 -34.5t35 -13.5q14 0 27.5 5.5t23.5 16.5zM436 270q0 67 -40 108.5t-112 41.5q-32 0 -62 -12.5t-52.5 -33.5t-36 -48t-13.5 -56h316z
" />
    <glyph glyph-name="Ecaron" unicode="&#x11a;" horiz-adv-x="593" 
d="M168 66h379v-66h-451v708h439v-66h-367v-241h343v-66h-343v-269zM363 760h-80l-109 144h66l83 -108l83 108h66z" />
    <glyph glyph-name="ecaron" unicode="&#x11b;" 
d="M436 270q0 67 -40 108.5t-112 41.5q-32 0 -62 -12.5t-52.5 -33.5t-36 -48t-13.5 -56h316zM118 216q3 -35 17 -66t37 -53.5t53 -35.5t65 -13q53 0 91.5 24.5t58.5 56.5l51 -42q-42 -53 -92.5 -76t-108.5 -23q-52 0 -96.5 18.5t-76.5 51.5t-50.5 78t-18.5 98t18 98t50 78
t75 51.5t93 18.5q53 0 95 -19t70.5 -50.5t43.5 -74t15 -90.5v-30h-390zM331 564h-80l-109 144h66l83 -108l83 108h66z" />
    <glyph glyph-name="Gcircumflex" unicode="&#x11c;" horiz-adv-x="778" 
d="M619 578q-36 38 -86 60t-116 22q-68 0 -122 -25t-91.5 -67t-57.5 -97.5t-20 -116.5t20 -116.5t57.5 -97.5t91.5 -67t122 -25q55 0 105.5 13.5t90.5 36.5v237h-169v66h241v-347q-60 -35 -131.5 -53.5t-136.5 -18.5q-79 0 -146.5 28t-117 77.5t-77.5 117.5t-28 149t28 149
t77.5 117.5t117 77.5t146.5 28q85 0 146.5 -23.5t109.5 -71.5zM558 760h-66l-83 108l-83 -108h-66l109 144h80z" />
    <glyph glyph-name="gcircumflex" unicode="&#x11d;" horiz-adv-x="611" 
d="M120 240q0 -37 13.5 -69.5t37 -57t55 -39t68.5 -14.5q36 0 68.5 13t57.5 36.5t38.5 56.5t12.5 74q0 37 -12 69.5t-35 57t-56 39t-74 14.5q-37 0 -68.5 -14.5t-55 -39t-37 -57t-13.5 -69.5zM108 -94q29 -39 75.5 -62.5t103.5 -23.5q50 0 85 14.5t56.5 39.5t31 58.5
t9.5 71.5v84h-2q-32 -48 -78 -68t-97 -20t-95.5 18t-77.5 49.5t-52 75.5t-19 95t18 95t49.5 77t75 51.5t95.5 18.5q21 0 44.5 -4t47 -14t46.5 -27.5t43 -44.5h2v78h66v-464q0 -38 -9.5 -81t-37 -79t-76.5 -60t-128 -24q-70 0 -125 23t-100 71zM451 564h-66l-83 108l-83 -108
h-66l109 144h80z" />
    <glyph glyph-name="Gbreve" unicode="&#x11e;" horiz-adv-x="778" 
d="M619 578q-36 38 -86 60t-116 22q-68 0 -122 -25t-91.5 -67t-57.5 -97.5t-20 -116.5t20 -116.5t57.5 -97.5t91.5 -67t122 -25q55 0 105.5 13.5t90.5 36.5v237h-169v66h241v-347q-60 -35 -131.5 -53.5t-136.5 -18.5q-79 0 -146.5 28t-117 77.5t-77.5 117.5t-28 149t28 149
t77.5 117.5t117 77.5t146.5 28q85 0 146.5 -23.5t109.5 -71.5zM557 898q-4 -63 -44.5 -97.5t-102.5 -34.5t-102.5 34.5t-44.5 97.5h44q7 -39 36 -58.5t67 -19.5t67 19.5t36 58.5h44z" />
    <glyph glyph-name="gbreve" unicode="&#x11f;" horiz-adv-x="611" 
d="M120 240q0 -37 13.5 -69.5t37 -57t55 -39t68.5 -14.5q36 0 68.5 13t57.5 36.5t38.5 56.5t12.5 74q0 37 -12 69.5t-35 57t-56 39t-74 14.5q-37 0 -68.5 -14.5t-55 -39t-37 -57t-13.5 -69.5zM108 -94q29 -39 75.5 -62.5t103.5 -23.5q50 0 85 14.5t56.5 39.5t31 58.5
t9.5 71.5v84h-2q-32 -48 -78 -68t-97 -20t-95.5 18t-77.5 49.5t-52 75.5t-19 95t18 95t49.5 77t75 51.5t95.5 18.5q21 0 44.5 -4t47 -14t46.5 -27.5t43 -44.5h2v78h66v-464q0 -38 -9.5 -81t-37 -79t-76.5 -60t-128 -24q-70 0 -125 23t-100 71zM453 708q-4 -63 -44.5 -97.5
t-102.5 -34.5t-102.5 34.5t-44.5 97.5h44q7 -39 36 -58.5t67 -19.5t67 19.5t36 58.5h44z" />
    <glyph glyph-name="Gdotaccent" unicode="&#x120;" horiz-adv-x="778" 
d="M619 578q-36 38 -86 60t-116 22q-68 0 -122 -25t-91.5 -67t-57.5 -97.5t-20 -116.5t20 -116.5t57.5 -97.5t91.5 -67t122 -25q55 0 105.5 13.5t90.5 36.5v237h-169v66h241v-347q-60 -35 -131.5 -53.5t-136.5 -18.5q-79 0 -146.5 28t-117 77.5t-77.5 117.5t-28 149t28 149
t77.5 117.5t117 77.5t146.5 28q85 0 146.5 -23.5t109.5 -71.5zM372 817q0 20 14 35.5t37 15.5t37 -15.5t14 -35.5t-14 -35.5t-37 -15.5t-37 15.5t-14 35.5z" />
    <glyph glyph-name="gdotaccent" unicode="&#x121;" horiz-adv-x="611" 
d="M120 240q0 -37 13.5 -69.5t37 -57t55 -39t68.5 -14.5q36 0 68.5 13t57.5 36.5t38.5 56.5t12.5 74q0 37 -12 69.5t-35 57t-56 39t-74 14.5q-37 0 -68.5 -14.5t-55 -39t-37 -57t-13.5 -69.5zM108 -94q29 -39 75.5 -62.5t103.5 -23.5q50 0 85 14.5t56.5 39.5t31 58.5
t9.5 71.5v84h-2q-32 -48 -78 -68t-97 -20t-95.5 18t-77.5 49.5t-52 75.5t-19 95t18 95t49.5 77t75 51.5t95.5 18.5q21 0 44.5 -4t47 -14t46.5 -27.5t43 -44.5h2v78h66v-464q0 -38 -9.5 -81t-37 -79t-76.5 -60t-128 -24q-70 0 -125 23t-100 71zM256 657q0 20 14 35.5t37 15.5
t37 -15.5t14 -35.5t-14 -35.5t-37 -15.5t-37 15.5t-14 35.5z" />
    <glyph glyph-name="Gcommaaccent" unicode="&#x122;" horiz-adv-x="778" 
d="M619 578q-36 38 -86 60t-116 22q-68 0 -122 -25t-91.5 -67t-57.5 -97.5t-20 -116.5t20 -116.5t57.5 -97.5t91.5 -67t122 -25q55 0 105.5 13.5t90.5 36.5v237h-169v66h241v-347q-60 -35 -131.5 -53.5t-136.5 -18.5q-79 0 -146.5 28t-117 77.5t-77.5 117.5t-28 149t28 149
t77.5 117.5t117 77.5t146.5 28q85 0 146.5 -23.5t109.5 -71.5zM392 -230h-57l62 185h71z" />
    <glyph glyph-name="gcommaaccent" unicode="&#x123;" horiz-adv-x="611" 
d="M120 240q0 -37 13.5 -69.5t37 -57t55 -39t68.5 -14.5q36 0 68.5 13t57.5 36.5t38.5 56.5t12.5 74q0 37 -12 69.5t-35 57t-56 39t-74 14.5q-37 0 -68.5 -14.5t-55 -39t-37 -57t-13.5 -69.5zM108 -94q29 -39 75.5 -62.5t103.5 -23.5q50 0 85 14.5t56.5 39.5t31 58.5
t9.5 71.5v84h-2q-32 -48 -78 -68t-97 -20t-95.5 18t-77.5 49.5t-52 75.5t-19 95t18 95t49.5 77t75 51.5t95.5 18.5q21 0 44.5 -4t47 -14t46.5 -27.5t43 -44.5h2v78h66v-464q0 -38 -9.5 -81t-37 -79t-76.5 -60t-128 -24q-70 0 -125 23t-100 71zM338 749h57l-62 -185h-71z" />
    <glyph glyph-name="Hcircumflex" unicode="&#x124;" horiz-adv-x="722" 
d="M96 708h72v-307h386v307h72v-708h-72v335h-386v-335h-72v708zM511 760h-66l-83 108l-83 -108h-66l109 144h80z" />
    <glyph glyph-name="hcircumflex" unicode="&#x125;" 
d="M72 756h66v-363h2q11 19 28 35t38 27.5t44.5 18t46.5 6.5q90 0 133 -47.5t43 -135.5v-297h-66v259q0 78 -27 119.5t-100 41.5q-5 0 -28 -4t-48.5 -22t-45.5 -54t-20 -100v-240h-66v756zM430 796h-66l-83 108l-83 -108h-66l109 144h80z" />
    <glyph glyph-name="Hbar" unicode="&#x126;" horiz-adv-x="722" 
d="M96 708h72v-165h386v165h72v-708h-72v335h-386v-335h-72v708zM554 401v82h-386v-82h386z" />
    <glyph glyph-name="hbar" unicode="&#x127;" 
d="M331 559h-193v-166h2q11 19 28 35t38 27.5t44.5 18t46.5 6.5q90 0 133 -47.5t43 -135.5v-297h-66v259q0 78 -27 119.5t-100 41.5q-5 0 -28 -4t-48.5 -22t-45.5 -54t-20 -100v-240h-66v559h-60v53h60v144h66v-144h193v-53z" />
    <glyph glyph-name="Itilde" unicode="&#x128;" horiz-adv-x="264" 
d="M168 0h-72v708h72v-708zM-29 771q3 19 9.5 38t17.5 33.5t26.5 23.5t38.5 9q18 0 36.5 -7t36.5 -16l35 -15.5t32 -7.5q23 0 33.5 15.5t15.5 34.5h43q-3 -20 -9.5 -38.5t-17.5 -33t-27 -23.5t-38 -9q-18 0 -36.5 7.5l-36.5 15.5q-17 9 -34 16t-33 7q-23 0 -33.5 -15.5
t-15.5 -34.5h-43z" />
    <glyph glyph-name="itilde" unicode="&#x129;" horiz-adv-x="240" 
d="M153 0h-66v468h66v-468zM-40 576q3 19 9.5 38t17.5 33.5t26.5 23.5t38.5 9q18 0 36.5 -7t36.5 -16l35 -15.5t32 -7.5q23 0 33.5 15.5t15.5 34.5h43q-3 -20 -9.5 -38.5t-17.5 -33t-27 -23.5t-38 -9q-18 0 -36.5 7.5l-36.5 15.5q-17 9 -34 16t-33 7q-23 0 -33.5 -15.5
t-15.5 -34.5h-43z" />
    <glyph glyph-name="Imacron" unicode="&#x12a;" horiz-adv-x="264" 
d="M168 0h-72v708h72v-708zM266 791h-270v54h270v-54z" />
    <glyph glyph-name="imacron" unicode="&#x12b;" horiz-adv-x="240" 
d="M153 0h-66v468h66v-468zM256 600h-270v54h270v-54z" />
    <glyph glyph-name="Iogonek" unicode="&#x12e;" horiz-adv-x="264" 
d="M199 -181q-17 -17 -41 -26.5t-49 -9.5q-18 0 -34 6t-28.5 17.5t-20 27t-7.5 34.5q0 21 8 40.5t21 37t29 33.5l23 21h-4v708h72v-708h-18q-33 -33 -51 -58q-20 -28 -20 -57q0 -21 15 -34.5t35 -13.5q14 0 27.5 5.5t23.5 16.5z" />
    <glyph glyph-name="iogonek" unicode="&#x12f;" horiz-adv-x="240" 
d="M188 -181q-17 -17 -41 -26.5t-49 -9.5q-18 0 -34 6t-28.5 17.5t-20 27t-7.5 34.5q0 21 8 40.5t21 37t29 33.5l23 21h-2v468h66v-468h-14q-33 -33 -51 -58q-20 -28 -20 -57q0 -21 15 -34.5t35 -13.5q14 0 27.5 5.5t23.5 16.5zM168 648q0 -21 -15 -34.5t-33 -13.5t-33 13.5
t-15 34.5t15 34.5t33 13.5t33 -13.5t15 -34.5z" />
    <glyph glyph-name="Idotaccent" unicode="&#x130;" horiz-adv-x="264" 
d="M168 0h-72v708h72v-708zM82 817q0 20 14 35.5t37 15.5t37 -15.5t14 -35.5t-14 -35.5t-37 -15.5t-37 15.5t-14 35.5z" />
    <glyph glyph-name="dotlessi" unicode="&#x131;" horiz-adv-x="240" 
d="M153 0h-66v468h66v-468z" />
    <glyph glyph-name="IJ" unicode="&#x132;" horiz-adv-x="688" 
d="M168 0h-72v708h72v-708zM293 145q10 -45 37 -71t75 -26q39 0 63.5 15.5t38 40t18.5 56t5 64.5v484h72v-514q0 -36 -9.5 -73.5t-33 -68t-61.5 -50.5t-95 -20q-73 0 -122 37.5t-61 110.5z" />
    <glyph glyph-name="ij" unicode="&#x133;" horiz-adv-x="475" 
d="M168 648q0 -21 -15 -34.5t-33 -13.5t-33 13.5t-15 34.5t15 34.5t33 13.5t33 -13.5t15 -34.5zM153 0h-66v468h66v-468zM403 648q0 -21 -15 -34.5t-33 -13.5t-33 13.5t-15 34.5t15 34.5t33 13.5t33 -13.5t15 -34.5zM213 -173l3 -1q8 -2 17.5 -4t17.5 -2q24 0 38.5 9
t21.5 23.5t9 31.5t2 34v550h66v-561q0 -10 -1 -34.5t-12.5 -49.5t-39 -44t-79.5 -19q-28 0 -52 10z" />
    <glyph glyph-name="Jcircumflex" unicode="&#x134;" horiz-adv-x="482" 
d="M87 145q10 -45 37 -71t75 -26q39 0 63.5 15.5t38 40t18.5 56t5 64.5v484h72v-514q0 -36 -9.5 -73.5t-33 -68t-61.5 -50.5t-95 -20q-73 0 -122 37.5t-61 110.5zM507 760h-66l-83 108l-83 -108h-66l109 144h80z" />
    <glyph glyph-name="jcircumflex" unicode="&#x135;" horiz-adv-x="240" 
d="M-22 -173l3 -1q8 -2 17.5 -4t17.5 -2q24 0 38.5 9t21.5 23.5t9 31.5t2 34v550h66v-561q0 -10 -1 -34.5t-12.5 -49.5t-39 -44t-79.5 -19q-28 0 -52 10zM267 564h-66l-83 108l-83 -108h-66l109 144h80z" />
    <glyph glyph-name="Kcommaaccent" unicode="&#x136;" horiz-adv-x="630" 
d="M168 401h1h9l333 307h103l-357 -321l377 -387h-106l-348 365h-11h-1v-365h-72v708h72v-307zM288 -230h-57l62 185h71z" />
    <glyph glyph-name="kcommaaccent" unicode="&#x137;" horiz-adv-x="482" 
d="M138 257l221 211h99l-233 -214l258 -254h-102l-243 246v-246h-66v756h66v-499zM198 -230h-57l62 185h71z" />
    <glyph glyph-name="Lacute" unicode="&#x139;" horiz-adv-x="500" 
d="M168 66h330v-66h-402v708h72v-642zM168 760h-59l100 144h91z" />
    <glyph glyph-name="lacute" unicode="&#x13a;" horiz-adv-x="240" 
d="M153 0h-66v756h66v-756zM146 792h-59l100 144h91z" />
    <glyph glyph-name="Lcommaaccent" unicode="&#x13b;" horiz-adv-x="500" 
d="M168 66h330v-66h-402v708h72v-642zM267 -230h-57l62 185h71z" />
    <glyph glyph-name="lcommaaccent" unicode="&#x13c;" horiz-adv-x="240" 
d="M153 0h-66v756h66v-756zM83 -230h-57l62 185h71z" />
    <glyph glyph-name="Lcaron" unicode="&#x13d;" horiz-adv-x="500" 
d="M168 66h330v-66h-402v708h72v-642zM312 523h-57l62 185h71z" />
    <glyph glyph-name="lcaron" unicode="&#x13e;" horiz-adv-x="240" 
d="M153 0h-66v756h66v-756zM259 523h-57l62 185h71z" />
    <glyph glyph-name="Ldot" unicode="&#x13f;" horiz-adv-x="500" 
d="M168 66h330v-66h-402v708h72v-642zM322 406q0 20 14 35.5t37 15.5t37 -15.5t14 -35.5t-14 -35.5t-37 -15.5t-37 15.5t-14 35.5z" />
    <glyph glyph-name="ldot" unicode="&#x140;" horiz-adv-x="300" 
d="M153 0h-66v756h66v-756zM215 410q0 20 14 35.5t37 15.5t37 -15.5t14 -35.5t-14 -35.5t-37 -15.5t-37 15.5t-14 35.5z" />
    <glyph glyph-name="Lslash" unicode="&#x141;" horiz-adv-x="500" 
d="M168 362l216 186v-70l-216 -186v-226h330v-66h-402v230l-82 -70v70l82 70v408h72v-346z" />
    <glyph glyph-name="lslash" unicode="&#x142;" horiz-adv-x="240" 
d="M153 458l81 84v-73l-81 -83v-386h-66v317l-81 -83v73l81 82v367h66v-298z" />
    <glyph glyph-name="Nacute" unicode="&#x143;" horiz-adv-x="778" 
d="M608 108h2v600h72v-708h-90l-422 606h-2v-606h-72v708h90zM400 760h-59l100 144h91z" />
    <glyph glyph-name="nacute" unicode="&#x144;" 
d="M135 468q2 -19 2.5 -37.5t0.5 -37.5h2q11 19 28 35t38 27.5t44.5 18t46.5 6.5q90 0 133 -47.5t43 -135.5v-297h-66v259q0 78 -27 119.5t-100 41.5q-5 0 -28 -4t-48.5 -22t-45.5 -54t-20 -100v-240h-66v365q0 19 -1.5 48t-3.5 55h68zM291 564h-59l100 144h91z" />
    <glyph glyph-name="Ncommaaccent" unicode="&#x145;" horiz-adv-x="778" 
d="M608 108h2v600h72v-708h-90l-422 606h-2v-606h-72v708h90zM358 -230h-57l62 185h71z" />
    <glyph glyph-name="ncommaaccent" unicode="&#x146;" 
d="M135 468q2 -19 2.5 -37.5t0.5 -37.5h2q11 19 28 35t38 27.5t44.5 18t46.5 6.5q90 0 133 -47.5t43 -135.5v-297h-66v259q0 78 -27 119.5t-100 41.5q-5 0 -28 -4t-48.5 -22t-45.5 -54t-20 -100v-240h-66v365q0 19 -1.5 48t-3.5 55h68zM246 -230h-57l62 185h71z" />
    <glyph glyph-name="Ncaron" unicode="&#x147;" horiz-adv-x="778" 
d="M608 108h2v600h72v-708h-90l-422 606h-2v-606h-72v708h90zM431 760h-80l-109 144h66l83 -108l83 108h66z" />
    <glyph glyph-name="ncaron" unicode="&#x148;" 
d="M135 468q2 -19 2.5 -37.5t0.5 -37.5h2q11 19 28 35t38 27.5t44.5 18t46.5 6.5q90 0 133 -47.5t43 -135.5v-297h-66v259q0 78 -27 119.5t-100 41.5q-5 0 -28 -4t-48.5 -22t-45.5 -54t-20 -100v-240h-66v365q0 19 -1.5 48t-3.5 55h68zM314 564h-80l-109 144h66l83 -108
l83 108h66z" />
    <glyph glyph-name="napostrophe" unicode="&#x149;" 
d="M135 468q2 -19 2.5 -37.5t0.5 -37.5h2q11 19 28 35t38 27.5t44.5 18t46.5 6.5q90 0 133 -47.5t43 -135.5v-297h-66v259q0 78 -27 119.5t-100 41.5q-5 0 -28 -4t-48.5 -22t-45.5 -54t-20 -100v-240h-66v365q0 19 -1.5 48t-3.5 55h68zM75 523h-57l62 185h71z" />
    <glyph glyph-name="Omacron" unicode="&#x14c;" horiz-adv-x="834" 
d="M708 354q0 61 -20 116.5t-57.5 97.5t-91.5 67t-122 25t-122 -25t-91.5 -67t-57.5 -97.5t-20 -116.5t20 -116.5t57.5 -97.5t91.5 -67t122 -25t122 25t91.5 67t57.5 97.5t20 116.5zM786 354q0 -81 -28 -149t-77.5 -117.5t-117 -77.5t-146.5 -28t-146.5 28t-117 77.5
t-77.5 117.5t-28 149t28 149t77.5 117.5t117 77.5t146.5 28t146.5 -28t117 -77.5t77.5 -117.5t28 -149zM553 791h-270v54h270v-54z" />
    <glyph glyph-name="omacron" unicode="&#x14d;" horiz-adv-x="593" 
d="M473 234q0 39 -12.5 73t-35.5 59t-55.5 39.5t-73.5 14.5t-73.5 -14.5t-55 -39.5t-35 -59t-12.5 -73t12.5 -73t35 -59t55 -39.5t73.5 -14.5t73.5 14.5t55.5 39.5t35.5 59t12.5 73zM545 234q0 -53 -18.5 -98t-51.5 -78t-78.5 -51.5t-100.5 -18.5q-54 0 -99.5 18.5
t-78.5 51.5t-51.5 78t-18.5 98t18.5 98t51.5 78t78.5 51.5t99.5 18.5q55 0 100.5 -18.5t78.5 -51.5t51.5 -78t18.5 -98zM432 600h-270v54h270v-54z" />
    <glyph glyph-name="Obreve" unicode="&#x14e;" horiz-adv-x="834" 
d="M708 354q0 61 -20 116.5t-57.5 97.5t-91.5 67t-122 25t-122 -25t-91.5 -67t-57.5 -97.5t-20 -116.5t20 -116.5t57.5 -97.5t91.5 -67t122 -25t122 25t91.5 67t57.5 97.5t20 116.5zM786 354q0 -81 -28 -149t-77.5 -117.5t-117 -77.5t-146.5 -28t-146.5 28t-117 77.5
t-77.5 117.5t-28 149t28 149t77.5 117.5t117 77.5t146.5 28t146.5 -28t117 -77.5t77.5 -117.5t28 -149zM563 898q-4 -63 -44.5 -97.5t-102.5 -34.5t-102.5 34.5t-44.5 97.5h44q7 -39 36 -58.5t67 -19.5t67 19.5t36 58.5h44z" />
    <glyph glyph-name="obreve" unicode="&#x14f;" horiz-adv-x="593" 
d="M473 234q0 39 -12.5 73t-35.5 59t-55.5 39.5t-73.5 14.5t-73.5 -14.5t-55 -39.5t-35 -59t-12.5 -73t12.5 -73t35 -59t55 -39.5t73.5 -14.5t73.5 14.5t55.5 39.5t35.5 59t12.5 73zM545 234q0 -53 -18.5 -98t-51.5 -78t-78.5 -51.5t-100.5 -18.5q-54 0 -99.5 18.5
t-78.5 51.5t-51.5 78t-18.5 98t18.5 98t51.5 78t78.5 51.5t99.5 18.5q55 0 100.5 -18.5t78.5 -51.5t51.5 -78t18.5 -98zM444 708q-4 -63 -44.5 -97.5t-102.5 -34.5t-102.5 34.5t-44.5 97.5h44q7 -39 36 -58.5t67 -19.5t67 19.5t36 58.5h44z" />
    <glyph glyph-name="Ohungarumlaut" unicode="&#x150;" horiz-adv-x="834" 
d="M708 354q0 61 -20 116.5t-57.5 97.5t-91.5 67t-122 25t-122 -25t-91.5 -67t-57.5 -97.5t-20 -116.5t20 -116.5t57.5 -97.5t91.5 -67t122 -25t122 25t91.5 67t57.5 97.5t20 116.5zM786 354q0 -81 -28 -149t-77.5 -117.5t-117 -77.5t-146.5 -28t-146.5 28t-117 77.5
t-77.5 117.5t-28 149t28 149t77.5 117.5t117 77.5t146.5 28t146.5 -28t117 -77.5t77.5 -117.5t28 -149zM519 760h-59l100 144h91zM318 760h-59l101 144h91z" />
    <glyph glyph-name="ohungarumlaut" unicode="&#x151;" horiz-adv-x="593" 
d="M473 234q0 39 -12.5 73t-35.5 59t-55.5 39.5t-73.5 14.5t-73.5 -14.5t-55 -39.5t-35 -59t-12.5 -73t12.5 -73t35 -59t55 -39.5t73.5 -14.5t73.5 14.5t55.5 39.5t35.5 59t12.5 73zM545 234q0 -53 -18.5 -98t-51.5 -78t-78.5 -51.5t-100.5 -18.5q-54 0 -99.5 18.5
t-78.5 51.5t-51.5 78t-18.5 98t18.5 98t51.5 78t78.5 51.5t99.5 18.5q55 0 100.5 -18.5t78.5 -51.5t51.5 -78t18.5 -98zM402 564h-59l100 144h91zM201 564h-59l101 144h91z" />
    <glyph glyph-name="OE" unicode="&#x152;" horiz-adv-x="944" 
d="M520 642h-57q-69 0 -128 -18.5t-102 -55t-67.5 -91t-24.5 -125.5q0 -21 5 -50.5t17.5 -61t34 -63t56 -56t82.5 -40t113 -15.5h71v576zM592 401h282v-66h-282v-269h306v-66h-447q-107 0 -180.5 34t-120 86t-67 115t-20.5 120q0 89 33.5 155.5t88 110.5t124 65.5
t140.5 21.5h437v-66h-294v-241z" />
    <glyph glyph-name="oe" unicode="&#x153;" horiz-adv-x="922" 
d="M808 270q0 33 -10 60.5t-29 47.5t-45.5 31t-59.5 11q-30 0 -55.5 -11.5t-44.5 -31.5t-30 -47.5t-11 -59.5h285zM451 234q0 37 -11 71t-32 59.5t-52 40.5t-71 15q-36 0 -66.5 -14.5t-52.5 -39.5t-34 -59t-12 -73t12 -73t34 -59t52.5 -39.5t66.5 -14.5q40 0 71 15t52 40.5
t32 59t11 71.5zM523 216v-9q0 -32 9.5 -61t27 -50.5t43 -34.5t57.5 -13q30 0 52.5 6t39.5 16.5t30 24.5t24 29l52 -41q-38 -49 -89.5 -72t-106.5 -23q-57 0 -105.5 26t-76.5 80q-20 -29 -44.5 -49t-50.5 -32.5t-52 -18.5t-48 -6q-54 0 -97.5 18.5t-74.5 51.5t-48 78t-17 98
t18 98t50 78t75.5 51.5t93.5 18.5q57 0 111 -24.5t87 -80.5q33 51 74.5 78t104.5 27q52 0 91.5 -18t66.5 -49.5t40.5 -74.5t13.5 -92v-30h-351z" />
    <glyph glyph-name="Racute" unicode="&#x154;" horiz-adv-x="593" 
d="M168 395h128q48 0 81.5 10t53.5 26.5t29 39t9 48.5q0 25 -9 47.5t-29 39.5t-53.5 26.5t-81.5 9.5h-128v-247zM168 0h-72v708h218q108 0 170.5 -47t62.5 -142q0 -74 -46.5 -124.5t-134.5 -58.5l204 -336h-88l-194 329h-120v-329zM302 760h-59l100 144h91z" />
    <glyph glyph-name="racute" unicode="&#x155;" horiz-adv-x="332" 
d="M79 322q0 31 -1.5 63t-2.5 83h65v-87h2q7 19 20 36.5t31.5 31.5t43 22.5t55.5 8.5q28 0 49 -6l-13 -65q-13 5 -38 5q-38 0 -65 -14.5t-45 -37t-26.5 -48.5t-8.5 -50v-264h-66v322zM196 564h-59l100 144h91z" />
    <glyph glyph-name="Rcommaaccent" unicode="&#x156;" horiz-adv-x="593" 
d="M168 395h128q48 0 81.5 10t53.5 26.5t29 39t9 48.5q0 25 -9 47.5t-29 39.5t-53.5 26.5t-81.5 9.5h-128v-247zM168 0h-72v708h218q108 0 170.5 -47t62.5 -142q0 -74 -46.5 -124.5t-134.5 -58.5l204 -336h-88l-194 329h-120v-329zM276 -230h-57l62 185h71z" />
    <glyph glyph-name="rcommaaccent" unicode="&#x157;" horiz-adv-x="332" 
d="M79 322q0 31 -1.5 63t-2.5 83h65v-87h2q7 19 20 36.5t31.5 31.5t43 22.5t55.5 8.5q28 0 49 -6l-13 -65q-13 5 -38 5q-38 0 -65 -14.5t-45 -37t-26.5 -48.5t-8.5 -50v-264h-66v322zM77 -230h-57l62 185h71z" />
    <glyph glyph-name="Rcaron" unicode="&#x158;" horiz-adv-x="593" 
d="M168 395h128q48 0 81.5 10t53.5 26.5t29 39t9 48.5q0 25 -9 47.5t-29 39.5t-53.5 26.5t-81.5 9.5h-128v-247zM168 0h-72v708h218q108 0 170.5 -47t62.5 -142q0 -74 -46.5 -124.5t-134.5 -58.5l204 -336h-88l-194 329h-120v-329zM334 760h-80l-109 144h66l83 -108l83 108
h66z" />
    <glyph glyph-name="rcaron" unicode="&#x159;" horiz-adv-x="332" 
d="M79 322q0 31 -1.5 63t-2.5 83h65v-87h2q7 19 20 36.5t31.5 31.5t43 22.5t55.5 8.5q28 0 49 -6l-13 -65q-13 5 -38 5q-38 0 -65 -14.5t-45 -37t-26.5 -48.5t-8.5 -50v-264h-66v322zM219 564h-80l-109 144h66l83 -108l83 108h66z" />
    <glyph glyph-name="Sacute" unicode="&#x15a;" 
d="M431 591q-47 69 -137 69q-28 0 -55 -7.5t-48.5 -23t-34.5 -40t-13 -57.5q0 -48 27 -74.5t67 -43.5t87.5 -30.5t87.5 -36t67 -59.5t27 -101q0 -48 -20.5 -86.5t-54 -64.5t-75 -40t-83.5 -14q-65 0 -123.5 24.5t-99.5 80.5l65 47q23 -39 64 -62.5t97 -23.5q27 0 54 8.5
t48.5 25t35.5 40.5t14 55q0 37 -15.5 61.5t-41 41t-58 27.5l-67 22t-67 25t-58 35.5t-41 54t-15.5 81.5q0 51 19.5 89t52 63t73.5 37t84 12q60 0 109 -19t91 -67zM310 760h-59l100 144h91z" />
    <glyph glyph-name="sacute" unicode="&#x15b;" horiz-adv-x="426" 
d="M320 357q-15 29 -40 46t-61 17q-17 0 -34.5 -4t-31.5 -12.5t-22.5 -21.5t-8.5 -32q0 -33 23 -48t69 -26l67 -16q49 -11 81.5 -44.5t32.5 -83.5q0 -38 -15.5 -65.5t-41 -45t-58.5 -25.5t-67 -8q-54 0 -100.5 20.5t-79.5 70.5l57 39q20 -32 50.5 -51t72.5 -19q20 0 40 4.5
t35.5 14t25 24.5t9.5 35q0 35 -26 50.5t-63 24.5l-64 15q-12 3 -32.5 10t-40 21t-33.5 36.5t-14 55.5q0 36 14.5 63t39 44t55.5 25.5t64 8.5q49 0 91 -19t65 -65zM237 564h-59l100 144h91z" />
    <glyph glyph-name="Scircumflex" unicode="&#x15c;" 
d="M431 591q-47 69 -137 69q-28 0 -55 -7.5t-48.5 -23t-34.5 -40t-13 -57.5q0 -48 27 -74.5t67 -43.5t87.5 -30.5t87.5 -36t67 -59.5t27 -101q0 -48 -20.5 -86.5t-54 -64.5t-75 -40t-83.5 -14q-65 0 -123.5 24.5t-99.5 80.5l65 47q23 -39 64 -62.5t97 -23.5q27 0 54 8.5
t48.5 25t35.5 40.5t14 55q0 37 -15.5 61.5t-41 41t-58 27.5l-67 22t-67 25t-58 35.5t-41 54t-15.5 81.5q0 51 19.5 89t52 63t73.5 37t84 12q60 0 109 -19t91 -67zM448 760h-66l-83 108l-83 -108h-66l109 144h80z" />
    <glyph glyph-name="scircumflex" unicode="&#x15d;" horiz-adv-x="426" 
d="M320 357q-15 29 -40 46t-61 17q-17 0 -34.5 -4t-31.5 -12.5t-22.5 -21.5t-8.5 -32q0 -33 23 -48t69 -26l67 -16q49 -11 81.5 -44.5t32.5 -83.5q0 -38 -15.5 -65.5t-41 -45t-58.5 -25.5t-67 -8q-54 0 -100.5 20.5t-79.5 70.5l57 39q20 -32 50.5 -51t72.5 -19q20 0 40 4.5
t35.5 14t25 24.5t9.5 35q0 35 -26 50.5t-63 24.5l-64 15q-12 3 -32.5 10t-40 21t-33.5 36.5t-14 55.5q0 36 14.5 63t39 44t55.5 25.5t64 8.5q49 0 91 -19t65 -65zM364 564h-66l-83 108l-83 -108h-66l109 144h80z" />
    <glyph glyph-name="Scedilla" unicode="&#x15e;" 
d="M267 -60l2 -1q8 3 16.5 5t19.5 2q30 0 53.5 -19.5t23.5 -55.5q0 -23 -10.5 -40t-27 -27.5t-37 -15.5t-40.5 -5q-52 0 -97 24l16 36q34 -18 74 -18q22 0 42 10t20 35q0 4 -2 11t-7 13.5t-15 11t-25 4.5q-14 0 -25 -3t-21 -8l-18 17l49 67q-57 2 -109 23q-58 25 -99 81
l65 47q23 -39 64 -62.5t97 -23.5q27 0 54 8.5t48.5 25t35.5 40.5t14 55q0 37 -15.5 61.5t-41 41t-58 27.5l-67 22t-67 25t-58 35.5t-41 54t-15.5 81.5q0 51 19.5 89t52 63t73.5 37t84 12q60 0 109 -19t91 -67l-63 -49q-47 69 -137 69q-28 0 -55 -7.5t-48.5 -23t-34.5 -40
t-13 -57.5q0 -48 27 -74.5t67 -43.5t87.5 -30.5t87.5 -36t67 -59.5t27 -101q0 -48 -20.5 -86.5t-54 -64.5t-75.5 -40q-28 -9 -57 -12z" />
    <glyph glyph-name="scedilla" unicode="&#x15f;" horiz-adv-x="426" 
d="M206 -60l2 -1q8 3 16.5 5t19.5 2q30 0 53.5 -19.5t23.5 -55.5q0 -23 -10.5 -40t-27 -27.5t-37 -15.5t-40.5 -5q-52 0 -97 24l16 36q34 -18 74 -18q22 0 42 10t20 35q0 4 -2 11t-7 13.5t-15 11t-25 4.5q-14 0 -25 -3t-21 -8l-18 17l53 72q-48 3 -89 20q-46 21 -79 71
l57 39q20 -32 50.5 -51t72.5 -19q20 0 40 4.5t35.5 14t25 24.5t9.5 35q0 35 -26 50.5t-63 24.5l-64 15q-12 3 -32.5 10t-40 21t-33.5 36.5t-14 55.5q0 36 14.5 63t39 44t55.5 25.5t64 8.5q49 0 91 -19t65 -65l-59 -39q-15 29 -40 46t-61 17q-17 0 -34.5 -4t-31.5 -12.5
t-22.5 -21.5t-8.5 -32q0 -33 23 -48t69 -26l67 -16q49 -11 81.5 -44.5t32.5 -83.5q0 -38 -15.5 -65.5t-41 -45t-58.5 -25.5q-19 -4 -37 -6z" />
    <glyph glyph-name="Scaron" unicode="&#x160;" 
d="M431 591q-47 69 -137 69q-28 0 -55 -7.5t-48.5 -23t-34.5 -40t-13 -57.5q0 -48 27 -74.5t67 -43.5t87.5 -30.5t87.5 -36t67 -59.5t27 -101q0 -48 -20.5 -86.5t-54 -64.5t-75 -40t-83.5 -14q-65 0 -123.5 24.5t-99.5 80.5l65 47q23 -39 64 -62.5t97 -23.5q27 0 54 8.5
t48.5 25t35.5 40.5t14 55q0 37 -15.5 61.5t-41 41t-58 27.5l-67 22t-67 25t-58 35.5t-41 54t-15.5 81.5q0 51 19.5 89t52 63t73.5 37t84 12q60 0 109 -19t91 -67zM318 739h-80l-109 144h66l83 -108l83 108h66z" />
    <glyph glyph-name="scaron" unicode="&#x161;" horiz-adv-x="426" 
d="M320 357q-15 29 -40 46t-61 17q-17 0 -34.5 -4t-31.5 -12.5t-22.5 -21.5t-8.5 -32q0 -33 23 -48t69 -26l67 -16q49 -11 81.5 -44.5t32.5 -83.5q0 -38 -15.5 -65.5t-41 -45t-58.5 -25.5t-67 -8q-54 0 -100.5 20.5t-79.5 70.5l57 39q20 -32 50.5 -51t72.5 -19q20 0 40 4.5
t35.5 14t25 24.5t9.5 35q0 35 -26 50.5t-63 24.5l-64 15q-12 3 -32.5 10t-40 21t-33.5 36.5t-14 55.5q0 36 14.5 63t39 44t55.5 25.5t64 8.5q49 0 91 -19t65 -65zM253 564h-80l-109 144h66l83 -108l83 108h66z" />
    <glyph glyph-name="Tcommaaccent" unicode="&#x162;" horiz-adv-x="574" 
d="M323 0h-72v642h-237v66h546v-66h-237v-642zM256 -230h-57l62 185h71z" />
    <glyph glyph-name="tcommaaccent" unicode="&#x163;" horiz-adv-x="332" 
d="M314 408h-135v-276q0 -26 5 -42.5t14 -25.5t21.5 -12.5t27.5 -3.5q17 0 35 5t33 13l3 -61q-37 -17 -89 -17q-19 0 -39.5 5t-37.5 19t-28 38t-11 63v295h-99v60h99v132h66v-132h135v-60zM161 -230h-57l62 185h71z" />
    <glyph glyph-name="Tcaron" unicode="&#x164;" horiz-adv-x="574" 
d="M323 0h-72v642h-237v66h546v-66h-237v-642zM327 760h-80l-109 144h66l83 -108l83 108h66z" />
    <glyph glyph-name="tcaron" unicode="&#x165;" horiz-adv-x="332" 
d="M314 408h-135v-276q0 -26 5 -42.5t14 -25.5t21.5 -12.5t27.5 -3.5q17 0 35 5t33 13l3 -61q-37 -17 -89 -17q-19 0 -39.5 5t-37.5 19t-28 38t-11 63v295h-99v60h99v132h66v-132h135v-60zM297 523h-57l62 185h71z" />
    <glyph glyph-name="Tbar" unicode="&#x166;" horiz-adv-x="574" 
d="M542 403h-219v-403h-72v403h-219v60h219v179h-237v66h546v-66h-237v-179h219v-60z" />
    <glyph glyph-name="tbar" unicode="&#x167;" horiz-adv-x="332" 
d="M314 408h-135v-102h115v-53h-115v-121q0 -26 5 -42.5t14 -25.5t21.5 -12.5t27.5 -3.5q17 0 35 5t33 13l3 -61q-37 -17 -89 -17q-19 0 -39.5 5t-37.5 19t-28 38t-11 63v140h-78v53h78v102h-99v60h99v132h66v-132h135v-60z" />
    <glyph glyph-name="Utilde" unicode="&#x168;" horiz-adv-x="686" 
d="M602 264q0 -44 -10.5 -93.5t-39.5 -91.5t-79.5 -69.5t-129.5 -27.5q-80 0 -130 27.5t-79 69.5t-39.5 91.5t-10.5 93.5v444h72v-436q0 -51 10 -87.5t26.5 -61.5t37 -39.5t41 -22.5t39.5 -10.5t33 -2.5q13 0 32.5 2.5t40 10.5t41 22.5t37 39.5t26.5 61.5t10 87.5v436h72
v-444zM190 771q3 19 9.5 38t17.5 33.5t26.5 23.5t38.5 9q18 0 36.5 -7t36.5 -16l35 -15.5t32 -7.5q23 0 33.5 15.5t15.5 34.5h43q-3 -20 -9.5 -38.5t-17.5 -33t-27 -23.5t-38 -9q-18 0 -36.5 7.5l-36.5 15.5q-17 9 -34 16t-33 7q-23 0 -33.5 -15.5t-15.5 -34.5h-43z" />
    <glyph glyph-name="utilde" unicode="&#x169;" 
d="M410 0q-2 19 -2.5 37.5t-0.5 37.5h-2q-11 -19 -28 -35t-38 -27.5t-44.5 -18t-46.5 -6.5q-90 0 -133 47.5t-43 135.5v297h66v-259q0 -39 6 -69t20.5 -50.5t39 -31t61.5 -10.5q5 0 28 4t48.5 22t45.5 54t20 100v240h66v-365q0 -19 1.5 -48t3.5 -55h-68zM116 576
q3 19 9.5 38t17.5 33.5t26.5 23.5t38.5 9q18 0 36.5 -7t36.5 -16l35 -15.5t32 -7.5q23 0 33.5 15.5t15.5 34.5h43q-3 -20 -9.5 -38.5t-17.5 -33t-27 -23.5t-38 -9q-18 0 -36.5 7.5l-36.5 15.5q-17 9 -34 16t-33 7q-23 0 -33.5 -15.5t-15.5 -34.5h-43z" />
    <glyph glyph-name="Umacron" unicode="&#x16a;" horiz-adv-x="686" 
d="M602 264q0 -44 -10.5 -93.5t-39.5 -91.5t-79.5 -69.5t-129.5 -27.5q-80 0 -130 27.5t-79 69.5t-39.5 91.5t-10.5 93.5v444h72v-436q0 -51 10 -87.5t26.5 -61.5t37 -39.5t41 -22.5t39.5 -10.5t33 -2.5q13 0 32.5 2.5t40 10.5t41 22.5t37 39.5t26.5 61.5t10 87.5v436h72
v-444zM480 791h-270v54h270v-54z" />
    <glyph glyph-name="umacron" unicode="&#x16b;" 
d="M410 0q-2 19 -2.5 37.5t-0.5 37.5h-2q-11 -19 -28 -35t-38 -27.5t-44.5 -18t-46.5 -6.5q-90 0 -133 47.5t-43 135.5v297h66v-259q0 -39 6 -69t20.5 -50.5t39 -31t61.5 -10.5q5 0 28 4t48.5 22t45.5 54t20 100v240h66v-365q0 -19 1.5 -48t3.5 -55h-68zM409 600h-270v54
h270v-54z" />
    <glyph glyph-name="Ubreve" unicode="&#x16c;" horiz-adv-x="686" 
d="M602 264q0 -44 -10.5 -93.5t-39.5 -91.5t-79.5 -69.5t-129.5 -27.5q-80 0 -130 27.5t-79 69.5t-39.5 91.5t-10.5 93.5v444h72v-436q0 -51 10 -87.5t26.5 -61.5t37 -39.5t41 -22.5t39.5 -10.5t33 -2.5q13 0 32.5 2.5t40 10.5t41 22.5t37 39.5t26.5 61.5t10 87.5v436h72
v-444zM492 898q-4 -63 -44.5 -97.5t-102.5 -34.5t-102.5 34.5t-44.5 97.5h44q7 -39 36 -58.5t67 -19.5t67 19.5t36 58.5h44z" />
    <glyph glyph-name="ubreve" unicode="&#x16d;" 
d="M410 0q-2 19 -2.5 37.5t-0.5 37.5h-2q-11 -19 -28 -35t-38 -27.5t-44.5 -18t-46.5 -6.5q-90 0 -133 47.5t-43 135.5v297h66v-259q0 -39 6 -69t20.5 -50.5t39 -31t61.5 -10.5q5 0 28 4t48.5 22t45.5 54t20 100v240h66v-365q0 -19 1.5 -48t3.5 -55h-68zM423 708
q-4 -63 -44.5 -97.5t-102.5 -34.5t-102.5 34.5t-44.5 97.5h44q7 -39 36 -58.5t67 -19.5t67 19.5t36 58.5h44z" />
    <glyph glyph-name="Uring" unicode="&#x16e;" horiz-adv-x="686" 
d="M602 264q0 -44 -10.5 -93.5t-39.5 -91.5t-79.5 -69.5t-129.5 -27.5q-80 0 -130 27.5t-79 69.5t-39.5 91.5t-10.5 93.5v444h72v-436q0 -51 10 -87.5t26.5 -61.5t37 -39.5t41 -22.5t39.5 -10.5t33 -2.5q13 0 32.5 2.5t40 10.5t41 22.5t37 39.5t26.5 61.5t10 87.5v436h72
v-444zM407 835q0 25 -17.5 42t-42.5 17t-42.5 -17t-17.5 -42t17.5 -42t42.5 -17t42.5 17t17.5 42zM443 835q0 -20 -7.5 -37.5t-21 -30.5t-31 -20t-36.5 -7q-20 0 -37 7t-30.5 20t-21 30.5t-7.5 37.5t7.5 37.5t21 30t30.5 20t37 7.5q19 0 36.5 -7.5t31 -20t21 -30t7.5 -37.5z
" />
    <glyph glyph-name="uring" unicode="&#x16f;" 
d="M410 0q-2 19 -2.5 37.5t-0.5 37.5h-2q-11 -19 -28 -35t-38 -27.5t-44.5 -18t-46.5 -6.5q-90 0 -133 47.5t-43 135.5v297h66v-259q0 -39 6 -69t20.5 -50.5t39 -31t61.5 -10.5q5 0 28 4t48.5 22t45.5 54t20 100v240h66v-365q0 -19 1.5 -48t3.5 -55h-68zM333 650
q0 25 -17.5 42t-42.5 17t-42.5 -17t-17.5 -42t17.5 -42t42.5 -17t42.5 17t17.5 42zM369 650q0 -20 -7.5 -37.5t-21 -30.5t-31 -20t-36.5 -7q-20 0 -37 7t-30.5 20t-21 30.5t-7.5 37.5t7.5 37.5t21 30t30.5 20t37 7.5q19 0 36.5 -7.5t31 -20t21 -30t7.5 -37.5z" />
    <glyph glyph-name="Uhungarumlaut" unicode="&#x170;" horiz-adv-x="686" 
d="M602 264q0 -44 -10.5 -93.5t-39.5 -91.5t-79.5 -69.5t-129.5 -27.5q-80 0 -130 27.5t-79 69.5t-39.5 91.5t-10.5 93.5v444h72v-436q0 -51 10 -87.5t26.5 -61.5t37 -39.5t41 -22.5t39.5 -10.5t33 -2.5q13 0 32.5 2.5t40 10.5t41 22.5t37 39.5t26.5 61.5t10 87.5v436h72
v-444zM453 760h-59l100 144h91zM252 760h-59l101 144h91z" />
    <glyph glyph-name="uhungarumlaut" unicode="&#x171;" 
d="M410 0q-2 19 -2.5 37.5t-0.5 37.5h-2q-11 -19 -28 -35t-38 -27.5t-44.5 -18t-46.5 -6.5q-90 0 -133 47.5t-43 135.5v297h66v-259q0 -39 6 -69t20.5 -50.5t39 -31t61.5 -10.5q5 0 28 4t48.5 22t45.5 54t20 100v240h66v-365q0 -19 1.5 -48t3.5 -55h-68zM398 564h-59
l100 144h91zM197 564h-59l101 144h91z" />
    <glyph glyph-name="Uogonek" unicode="&#x172;" horiz-adv-x="686" 
d="M445 -181q-17 -17 -41 -26.5t-49 -9.5q-18 0 -34 6t-28.5 17.5t-20 27t-7.5 34.5q0 21 8 40.5t21 37t29 33.5l3 3q-68 3 -113 27q-50 28 -79 70t-39.5 91.5t-10.5 93.5v444h72v-436q0 -51 10 -87.5t26.5 -61.5t37 -39.5t41 -22.5t39.5 -10.5t33 -2.5q13 0 32.5 2.5
t40 10.5t41 22.5t37 39.5t26.5 61.5t10 87.5v436h72v-444q0 -44 -10.5 -93.5t-39.5 -91.5t-80 -70q-38 -20 -92 -25q-22 -24 -35 -42q-20 -28 -20 -57q0 -21 15 -34.5t35 -13.5q14 0 27.5 5.5t23.5 16.5z" />
    <glyph glyph-name="uogonek" unicode="&#x173;" 
d="M511 -181q-17 -17 -41 -26.5t-49 -9.5q-18 0 -34 6t-28.5 17.5t-20 27t-7.5 34.5q0 21 8 40.5t21 37t29 33.5l23 21h-2q-2 19 -2.5 37.5t-0.5 37.5h-2q-11 -19 -28 -35t-38 -27.5t-44.5 -18t-46.5 -6.5q-90 0 -133 47.5t-43 135.5v297h66v-259q0 -39 6 -69t20.5 -50.5
t39 -31t61.5 -10.5q5 0 28 4t48.5 22t45.5 54t20 100v240h66v-365q0 -19 1.5 -48t3.5 -55h-16q-33 -33 -51 -58q-20 -28 -20 -57q0 -21 15 -34.5t35 -13.5q14 0 27.5 5.5t23.5 16.5z" />
    <glyph glyph-name="Wcircumflex" unicode="&#x174;" horiz-adv-x="944" 
d="M250 102h2l178 606h86l178 -606h2l168 606h80l-209 -708h-84l-178 606h-2l-178 -606h-84l-209 708h80zM622 760h-66l-83 108l-83 -108h-66l109 144h80z" />
    <glyph glyph-name="wcircumflex" unicode="&#x175;" horiz-adv-x="722" 
d="M92 468l108 -380h2l125 380h68l125 -380h2l108 380h78l-148 -468h-74l-124 384h-2l-124 -384h-74l-148 468h78zM510 564h-66l-83 108l-83 -108h-66l109 144h80z" />
    <glyph glyph-name="Ycircumflex" unicode="&#x176;" horiz-adv-x="574" 
d="M323 0h-72v305l-265 403h90l211 -334l211 334h90l-265 -403v-305zM436 760h-66l-83 108l-83 -108h-66l109 144h80z" />
    <glyph glyph-name="ycircumflex" unicode="&#x177;" horiz-adv-x="482" 
d="M246 81l143 387h80l-234 -590q-21 -54 -53.5 -86t-93.5 -32q-15 0 -30.5 1t-30.5 6l7 64q21 -11 50 -11q35 0 55 22t35 62l34 90l-192 474h83zM388 564h-66l-83 108l-83 -108h-66l109 144h80z" />
    <glyph glyph-name="Ydieresis" unicode="&#x178;" horiz-adv-x="574" 
d="M323 0h-72v305l-265 403h90l211 -334l211 334h90l-265 -403v-305zM332 822q0 20 14 35.5t37 15.5t37 -15.5t14 -35.5t-14 -35.5t-37 -15.5t-37 15.5t-14 35.5zM140 822q0 20 14 35.5t37 15.5t37 -15.5t14 -35.5t-14 -35.5t-37 -15.5t-37 15.5t-14 35.5z" />
    <glyph glyph-name="Zacute" unicode="&#x179;" 
d="M527 648l-413 -582h419v-66h-510v60l414 582h-408v66h498v-60zM274 760h-59l100 144h91z" />
    <glyph glyph-name="zacute" unicode="&#x17a;" horiz-adv-x="426" 
d="M393 420l-274 -360h284v-60h-380v48l274 360h-260v60h356v-48zM216 564h-59l100 144h91z" />
    <glyph glyph-name="Zdotaccent" unicode="&#x17b;" 
d="M527 648l-413 -582h419v-66h-510v60l414 582h-408v66h498v-60zM217 817q0 20 14 35.5t37 15.5t37 -15.5t14 -35.5t-14 -35.5t-37 -15.5t-37 15.5t-14 35.5z" />
    <glyph glyph-name="zdotaccent" unicode="&#x17c;" horiz-adv-x="426" 
d="M393 420l-274 -360h284v-60h-380v48l274 360h-260v60h356v-48zM162 657q0 20 14 35.5t37 15.5t37 -15.5t14 -35.5t-14 -35.5t-37 -15.5t-37 15.5t-14 35.5z" />
    <glyph glyph-name="Zcaron" unicode="&#x17d;" 
d="M527 648l-413 -582h419v-66h-510v60l414 582h-408v66h498v-60zM318 739h-80l-109 144h66l83 -108l83 108h66z" />
    <glyph glyph-name="zcaron" unicode="&#x17e;" horiz-adv-x="426" 
d="M393 420l-274 -360h284v-60h-380v48l274 360h-260v60h356v-48zM253 564h-80l-109 144h66l83 -108l83 108h66z" />
    <glyph glyph-name="florin" unicode="&#x192;" 
d="M423 365h-119l-67 -352q-5 -27 -15 -54t-27.5 -49t-45 -35.5t-67.5 -13.5q-22 0 -43.5 5.5t-38.5 18.5l32 48q11 -6 25 -9t27 -3q23 0 38 9.5t24.5 24.5t15 34t8.5 38l63 338h-108v54h119l27 144q6 31 16 59t28 50t44 35t64 13q52 0 95 -29l-34 -48q-13 8 -27.5 12.5
t-29.5 4.5q-25 0 -41 -12t-26 -30t-15 -38t-8 -36l-22 -125h108v-54z" />
    <glyph glyph-name="Scommaaccent" unicode="&#x218;" 
d="M431 591q-47 69 -137 69q-28 0 -55 -7.5t-48.5 -23t-34.5 -40t-13 -57.5q0 -48 27 -74.5t67 -43.5t87.5 -30.5t87.5 -36t67 -59.5t27 -101q0 -48 -20.5 -86.5t-54 -64.5t-75 -40t-83.5 -14q-65 0 -123.5 24.5t-99.5 80.5l65 47q23 -39 64 -62.5t97 -23.5q27 0 54 8.5
t48.5 25t35.5 40.5t14 55q0 37 -15.5 61.5t-41 41t-58 27.5l-67 22t-67 25t-58 35.5t-41 54t-15.5 81.5q0 51 19.5 89t52 63t73.5 37t84 12q60 0 109 -19t91 -67zM255 -230h-57l62 185h71z" />
    <glyph glyph-name="scommaaccent" unicode="&#x219;" horiz-adv-x="426" 
d="M320 357q-15 29 -40 46t-61 17q-17 0 -34.5 -4t-31.5 -12.5t-22.5 -21.5t-8.5 -32q0 -33 23 -48t69 -26l67 -16q49 -11 81.5 -44.5t32.5 -83.5q0 -38 -15.5 -65.5t-41 -45t-58.5 -25.5t-67 -8q-54 0 -100.5 20.5t-79.5 70.5l57 39q20 -32 50.5 -51t72.5 -19q20 0 40 4.5
t35.5 14t25 24.5t9.5 35q0 35 -26 50.5t-63 24.5l-64 15q-12 3 -32.5 10t-40 21t-33.5 36.5t-14 55.5q0 36 14.5 63t39 44t55.5 25.5t64 8.5q49 0 91 -19t65 -65zM189 -230h-57l62 185h71z" />
    <glyph glyph-name="uni021A" unicode="&#x21a;" horiz-adv-x="574" 
d="M323 0h-72v642h-237v66h546v-66h-237v-642zM256 -230h-57l62 185h71z" />
    <glyph glyph-name="uni021B" unicode="&#x21b;" horiz-adv-x="332" 
d="M314 408h-135v-276q0 -26 5 -42.5t14 -25.5t21.5 -12.5t27.5 -3.5q17 0 35 5t33 13l3 -61q-37 -17 -89 -17q-19 0 -39.5 5t-37.5 19t-28 38t-11 63v295h-99v60h99v132h66v-132h135v-60zM161 -230h-57l62 185h71z" />
    <glyph glyph-name="circumflex" unicode="&#x2c6;" horiz-adv-x="240" 
d="M269 564h-66l-83 108l-83 -108h-66l109 144h80z" />
    <glyph glyph-name="caron" unicode="&#x2c7;" horiz-adv-x="240" 
d="M160 564h-80l-109 144h66l83 -108l83 108h66z" />
    <glyph glyph-name="uni02C9" unicode="&#x2c9;" horiz-adv-x="240" 
d="M255 600h-270v54h270v-54z" />
    <glyph glyph-name="breve" unicode="&#x2d8;" horiz-adv-x="240" 
d="M267 708q-4 -63 -44.5 -97.5t-102.5 -34.5t-102.5 34.5t-44.5 97.5h44q7 -39 36 -58.5t67 -19.5t67 19.5t36 58.5h44z" />
    <glyph glyph-name="dotaccent" unicode="&#x2d9;" horiz-adv-x="240" 
d="M69 657q0 20 14 35.5t37 15.5t37 -15.5t14 -35.5t-14 -35.5t-37 -15.5t-37 15.5t-14 35.5z" />
    <glyph glyph-name="ring" unicode="&#x2da;" horiz-adv-x="240" 
d="M180 650q0 25 -17.5 42t-42.5 17t-42.5 -17t-17.5 -42t17.5 -42t42.5 -17t42.5 17t17.5 42zM216 650q0 -20 -7.5 -37.5t-21 -30.5t-31 -20t-36.5 -7q-20 0 -37 7t-30.5 20t-21 30.5t-7.5 37.5t7.5 37.5t21 30t30.5 20t37 7.5q19 0 36.5 -7.5t31 -20t21 -30t7.5 -37.5z
" />
    <glyph glyph-name="ogonek" unicode="&#x2db;" horiz-adv-x="240" 
d="M210 -181q-17 -17 -41 -26.5t-49 -9.5q-18 0 -34 6t-28.5 17.5t-20 27t-7.5 34.5q0 21 8 40.5t21 37t29 33t31 27.5h48q-37 -37 -57 -64.5t-20 -56.5q0 -21 15 -34.5t35 -13.5q14 0 27.5 5.5t23.5 16.5z" />
    <glyph glyph-name="tilde" unicode="&#x2dc;" horiz-adv-x="240" 
d="M-42 576q3 19 9.5 38t17.5 33.5t26.5 23.5t38.5 9q18 0 36.5 -7t36.5 -16l35 -15.5t32 -7.5q23 0 33.5 15.5t15.5 34.5h43q-3 -20 -9.5 -38.5t-17.5 -33t-27 -23.5t-38 -9q-18 0 -36.5 7.5l-36.5 15.5q-17 9 -34 16t-33 7q-23 0 -33.5 -15.5t-15.5 -34.5h-43z" />
    <glyph glyph-name="hungarumlaut" unicode="&#x2dd;" horiz-adv-x="240" 
d="M184 564h-59l100 144h91zM-17 564h-59l101 144h91z" />
    <glyph glyph-name="uni0394" unicode="&#x394;" horiz-adv-x="670" 
d="M15 0l281 712h74l287 -712h-642zM332 645l-226 -583h455z" />
    <glyph glyph-name="uni03A9" unicode="&#x3a9;" horiz-adv-x="744" 
d="M434 0v181q45 8 79.5 28.5t58 51.5t35 70t11.5 84q0 54 -19.5 99t-53.5 77.5t-80 50.5t-99 18t-99 -18.5t-80 -51t-53.5 -77.5t-19.5 -98q0 -44 11.5 -83.5t35 -70.5t58 -52t79.5 -28v-181h-251v58h197v82q-47 13 -83.5 40t-62 63.5t-38.5 80.5t-13 92q0 67 25.5 123
t69.5 96.5t102 63t123 22.5t122.5 -22.5t101 -63t69 -96.5t25.5 -122q0 -48 -13 -92.5t-38 -81t-61.5 -63.5t-84.5 -40v-82h197v-58h-251z" />
    <glyph glyph-name="uni03BC" unicode="&#x3bc;" 
d="M72 468h66v-259q0 -86 27.5 -123.5t99.5 -37.5q30 0 56 12t45 35t30 56.5t11 76.5v240h66v-365q0 -26 1.5 -51.5t3.5 -51.5h-71v76h-2q-11 -18 -28 -34t-38 -28t-44.5 -19t-46.5 -7q-69 0 -110 29v-245h-66v696z" />
    <glyph glyph-name="pi" unicode="&#x3c0;" horiz-adv-x="563" 
d="M530 11q-17 -8 -31.5 -12.5t-32.5 -4.5q-29 0 -45.5 9.5t-24 26t-9 37.5t-1.5 44v298h-220v-409h-64v409h-70v59h494v-59h-76v-305q0 -22 5.5 -38t32.5 -16q20 0 42 10v-49v0z" />
    <glyph glyph-name="endash" unicode="&#x2013;" horiz-adv-x="500" 
d="M500 207h-500v66h500v-66z" />
    <glyph glyph-name="emdash" unicode="&#x2014;" horiz-adv-x="1000" 
d="M1000 207h-1000v66h1000v-66z" />
    <glyph glyph-name="quoteleft" unicode="&#x2018;" horiz-adv-x="260" 
d="M137 708h67l-67 -235h-81z" />
    <glyph glyph-name="quoteright" unicode="&#x2019;" horiz-adv-x="260" 
d="M123 473h-67l67 235h81z" />
    <glyph glyph-name="quotesinglbase" unicode="&#x201a;" horiz-adv-x="260" 
d="M123 -140h-67l67 235h81z" />
    <glyph glyph-name="quotedblleft" unicode="&#x201c;" horiz-adv-x="519" 
d="M357 708h67l-67 -235h-81zM176 708h67l-67 -235h-81z" />
    <glyph glyph-name="quotedblright" unicode="&#x201d;" horiz-adv-x="519" 
d="M162 473h-67l67 235h81zM343 473h-67l67 235h81z" />
    <glyph glyph-name="quotedblbase" unicode="&#x201e;" horiz-adv-x="519" 
d="M162 -140h-67l67 235h81zM343 -140h-67l67 235h81z" />
    <glyph glyph-name="dagger" unicode="&#x2020;" 
d="M311 504h204v-60h-204v-570h-66v570h-204v60h204v204h66v-204z" />
    <glyph glyph-name="daggerdbl" unicode="&#x2021;" 
d="M311 516h195v-60h-195v-330h195v-60h-195v-192h-66v192h-195v60h195v330h-195v60h195v192h66v-192z" />
    <glyph glyph-name="bullet" unicode="&#x2022;" horiz-adv-x="500" 
d="M73 354q0 37 14 69t38 56t56 38t69 14t69 -14t56 -38t38 -56t14 -69t-14 -69t-38 -56t-56 -38t-69 -14t-69 14t-56 38t-38 56t-14 69z" />
    <glyph glyph-name="ellipsis" unicode="&#x2026;" horiz-adv-x="1000" 
d="M887 48q0 -21 -15 -37.5t-39 -16.5t-39 16.5t-15 37.5t15 37.5t39 16.5t39 -16.5t15 -37.5zM554 48q0 -21 -15 -37.5t-39 -16.5t-39 16.5t-15 37.5t15 37.5t39 16.5t39 -16.5t15 -37.5zM221 48q0 -21 -15 -37.5t-39 -16.5t-39 16.5t-15 37.5t15 37.5t39 16.5t39 -16.5
t15 -37.5z" />
    <glyph glyph-name="perthousand" unicode="&#x2030;" horiz-adv-x="1000" 
d="M125 -31l-52 27l451 743l51 -27zM921 142q0 42 -28.5 71t-70.5 29t-70.5 -29t-28.5 -71t28.5 -71t70.5 -29t70.5 29t28.5 71zM975 142q0 -32 -12 -60t-32.5 -49t-48.5 -33t-60 -12t-60 12t-48.5 33t-32.5 49t-12 60q0 31 12 59t32.5 49t48.5 33.5t60 12.5t60 -12.5
t48.5 -33.5t32.5 -49t12 -59zM571 142q0 42 -28.5 71t-70.5 29t-70.5 -29t-28.5 -71t28.5 -71t70.5 -29t70.5 29t28.5 71zM625 142q0 -32 -12 -60t-32.5 -49t-48.5 -33t-60 -12t-60 12t-48.5 33t-32.5 49t-12 60q0 31 12 59t32.5 49t48.5 33.5t60 12.5t60 -12.5t48.5 -33.5
t32.5 -49t12 -59zM277 566q0 42 -28.5 71t-70.5 29t-70.5 -29t-28.5 -71t28.5 -71t70.5 -29t70.5 29t28.5 71zM331 566q0 -32 -12 -60t-32.5 -49t-48.5 -33t-60 -12t-60 12t-48.5 33t-32.5 49t-12 60q0 31 12 59t32.5 49t48.5 33.5t60 12.5t60 -12.5t48.5 -33.5t32.5 -49
t12 -59z" />
    <glyph glyph-name="guilsinglleft" unicode="&#x2039;" horiz-adv-x="315" 
d="M246 64l-47 -33l-140 209l140 209l47 -33l-115 -176z" />
    <glyph glyph-name="guilsinglright" unicode="&#x203a;" horiz-adv-x="315" 
d="M69 416l47 33l140 -209l-140 -209l-47 33l115 176z" />
    <glyph glyph-name="fraction" unicode="&#x2044;" horiz-adv-x="168" 
d="M-167 0l451 740l51 -31l-450 -741z" />
    <glyph glyph-name="Euro" unicode="&#x20ac;" 
d="M497 618q-23 17 -57.5 28t-76.5 11q-150 0 -186 -182h283l-17 -56h-275q-3 -36 -3 -76q0 -14 0.5 -27.5t1.5 -27.5h240l-18 -55h-216q15 -87 56.5 -136t113.5 -49q40 0 74 18.5t51 45.5l47 -34q-28 -46 -77.5 -68t-103.5 -22t-94.5 18t-69 50.5t-46.5 77.5t-26 99h-75
l20 55h49q-1 14 -1.5 28.5t-0.5 29.5q0 38 3 73h-69l20 56h57q25 126 95.5 185.5t167.5 59.5q42 0 85.5 -12t68.5 -28z" />
    <glyph glyph-name="afii61289" unicode="&#x2113;" horiz-adv-x="500" 
d="M415 41q-59 -55 -130 -55q-55 0 -91 31.5t-36 96.5v114l-58 -62h-2l-26 37l86 84v259q0 42 10 74.5t27.5 55t41 34t50.5 11.5q48 0 79 -34t31 -94q0 -74 -43.5 -153t-127.5 -165v-150q0 -26 7 -43t18 -26.5t24 -13.5t26 -4q20 0 42.5 9t45.5 29h2l24 -35v0zM340 588
q0 38 -15 61.5t-38 23.5t-42 -28t-19 -88v-222q56 65 85 130.5t29 122.5z" />
    <glyph glyph-name="trademark" unicode="&#x2122;" horiz-adv-x="1000" 
d="M928 296h-60v346h-2l-139 -346h-39l-139 346h-2v-346h-60v412h93l129 -316l129 316h90v-412zM401 654h-133v-358h-60v358h-136v54h329v-54z" />
    <glyph glyph-name="Omega" unicode="&#x2126;" horiz-adv-x="744" 
d="M434 0v181q45 8 79.5 28.5t58 51.5t35 70t11.5 84q0 54 -19.5 99t-53.5 77.5t-80 50.5t-99 18t-99 -18.5t-80 -51t-53.5 -77.5t-19.5 -98q0 -44 11.5 -83.5t35 -70.5t58 -52t79.5 -28v-181h-251v58h197v82q-47 13 -83.5 40t-62 63.5t-38.5 80.5t-13 92q0 67 25.5 123
t69.5 96.5t102 63t123 22.5t122.5 -22.5t101 -63t69 -96.5t25.5 -122q0 -48 -13 -92.5t-38 -81t-61.5 -63.5t-84.5 -40v-82h197v-58h-251z" />
    <glyph glyph-name="estimated" unicode="&#x212e;" horiz-adv-x="604" 
d="M157 259v-181q59 -59 145 -59q63 0 109 28.5t84 91.5l35 -21q-23 -36 -46.5 -61.5t-51 -42t-59.5 -24t-71 -7.5q-59 0 -106.5 21.5t-81.5 59t-52 87.5t-18 108t18 108.5t52 87.5t81.5 58.5t106.5 21.5q58 0 105.5 -20.5t81.5 -57t53 -87t19 -111.5h-404zM448 295v145
q-63 60 -147 60t-144 -60v-145h291z" />
    <glyph glyph-name="partialdiff" unicode="&#x2202;" horiz-adv-x="496" 
d="M455 363q0 -55 -8 -120.5t-32 -122t-68.5 -94.5t-116.5 -38q-47 0 -84 18.5t-62.5 49.5t-39 71.5t-13.5 84.5q0 43 13 82t38 68t61 46t82 17q49 0 92 -23t74 -61q0 13 0.5 26t0.5 26q0 42 -8.5 89.5t-29 88.5t-55 68t-86.5 27q-35 0 -60.5 -13t-51.5 -33l-36 43
q32 28 67 43t78 15q48 0 85 -15.5t64 -42.5t45.5 -62.5t29.5 -75.5t16 -81.5t5 -80.5zM386 278q-27 36 -67 63.5t-88 27.5q-34 0 -59.5 -13t-43 -35t-26 -51t-8.5 -60q0 -30 8.5 -60t26 -54.5t43 -39.5t59.5 -15q43 0 72 24t47 60t26 77.5t10 75.5z" />
    <glyph glyph-name="Delta" unicode="&#x2206;" horiz-adv-x="670" 
d="M15 0l281 712h74l287 -712h-642zM332 645l-226 -583h455z" />
    <glyph glyph-name="product" unicode="&#x220f;" horiz-adv-x="711" 
d="M575 -214v938h-438v-938h-66v1000h570v-1000h-66z" />
    <glyph glyph-name="summation" unicode="&#x2211;" horiz-adv-x="604" 
d="M25 -214v55l329 448l-315 441v56h527v-62h-442l309 -435l-328 -442h473v-61h-553z" />
    <glyph glyph-name="minus" unicode="&#x2212;" horiz-adv-x="666" 
d="M588 273h-510v60h510v-60z" />
    <glyph glyph-name="uni2215" unicode="&#x2215;" horiz-adv-x="168" 
d="M-167 0l451 740l51 -31l-450 -741z" />
    <glyph glyph-name="uni2219" unicode="&#x2219;" horiz-adv-x="278" 
d="M193 314q0 -21 -15 -37.5t-39 -16.5t-39 16.5t-15 37.5t15 37.5t39 16.5t39 -16.5t15 -37.5z" />
    <glyph glyph-name="radical" unicode="&#x221a;" horiz-adv-x="493" 
d="M292 -214h-66l-164 340l-46 -22l-24 50l100 48l158 -332l189 916h63z" />
    <glyph glyph-name="infinity" unicode="&#x221e;" horiz-adv-x="741" 
d="M700 252q0 -31 -10 -58t-28 -47t-44 -31.5t-58 -11.5q-29 0 -55 9.5t-49 25t-44.5 34.5t-40.5 38q-22 -18 -43 -37t-43.5 -34.5t-48 -25.5t-55.5 -10q-32 0 -57.5 11t-44 30.5t-28.5 46t-10 57.5q0 30 9.5 57t27.5 47.5t43.5 32t57.5 11.5q29 0 55.5 -10.5t50 -27t45 -36
l41.5 -38.5l40.5 39t43 36.5t48 27t55.5 10.5q32 0 58 -11t45 -30.5t29 -46.5t10 -58zM643 249q0 38 -21 65t-62 27q-21 0 -41.5 -9.5t-40 -23.5t-37 -30.5l-32.5 -29.5l33.5 -29t37 -28t40 -21t43.5 -8q38 0 59 25t21 62zM333 249l-33 28.5t-38.5 29.5t-41.5 23.5t-42 9.5
q-19 0 -34 -7.5t-25 -20t-15.5 -28.5t-5.5 -34q0 -38 22 -63t62 -25q20 0 41 8.5t41 21.5t37.5 28.5z" />
    <glyph glyph-name="integral" unicode="&#x222b;" horiz-adv-x="543" 
d="M406 736q0 -17 -10.5 -25.5t-26.5 -8.5q-14 0 -21 6t-11.5 13.5l-8.5 14t-11 6.5q-12 0 -19 -13t-10.5 -32.5t-5 -42.5t-1 -44.5t1 -37.5t0.5 -21v-504q0 -32 -1 -76.5t-12 -85.5t-36 -69.5t-73 -28.5q-21 0 -40.5 11t-19.5 36q0 14 9.5 23t23.5 9q13 0 20 -6t11.5 -13
l8.5 -13t10 -6q13 0 20 22.5t9.5 51t2.5 54v31.5l1 21v495q0 23 -1 53t0.5 61.5t7 61.5t19 54t36 38.5t57.5 14.5q11 0 23.5 -2.5t23 -8.5t17 -15.5t6.5 -23.5z" />
    <glyph glyph-name="approxequal" unicode="&#x2248;" horiz-adv-x="666" 
d="M596 402q-3 -26 -11.5 -51t-23.5 -44t-36.5 -30.5t-51.5 -11.5q-32 0 -69.5 11.5t-75.5 25.5q-37 14 -71.5 25t-61.5 11q-34 0 -54 -24.5t-25 -55.5h-45q3 26 11.5 51t23.5 44.5t37 31.5t52 12q33 0 69.5 -11t73.5 -25q38 -14 72.5 -25.5t63.5 -11.5q36 0 54 23t25 55h43
v0zM596 232q-3 -26 -11.5 -51t-23.5 -44.5t-37 -31t-52 -11.5q-32 0 -69.5 11.5t-74.5 25.5t-71.5 25t-61.5 11q-34 0 -54 -24.5t-25 -55.5h-45q4 26 12 51t22.5 45t36.5 32t52 12q33 0 69.5 -11t74.5 -25q37 -14 72 -25.5t64 -11.5q35 0 53 23t25 55h44v0z" />
    <glyph glyph-name="notequal" unicode="&#x2260;" horiz-adv-x="666" 
d="M297 120l-76 -144l-52 27l62 117h-149v60h181l68 130h-249v60h282l77 147l52 -28l-63 -119h154v-60h-186l-69 -130h255v-60h-287z" />
    <glyph glyph-name="lessequal" unicode="&#x2264;" horiz-adv-x="666" 
d="M82 296v65l502 189v-65l-419 -157l419 -155v-65zM82 6v59h502v-59h-502z" />
    <glyph glyph-name="greaterequal" unicode="&#x2265;" horiz-adv-x="666" 
d="M82 108v65l420 155l-420 157v65l502 -189v-65zM82 6v59h502v-59h-502z" />
    <glyph glyph-name="lozenge" unicode="&#x25ca;" horiz-adv-x="593" 
d="M327 -35h-63l-169 391l169 391h63l171 -391zM296 681l-136 -325l136 -325l137 325z" />
    <glyph glyph-name="dotlessj" unicode="&#xe0d6;" horiz-adv-x="240" 
d="M-22 -173l3 -1q8 -2 17.5 -4t17.5 -2q24 0 38.5 9t21.5 23.5t9 31.5t2 34v550h66v-561q0 -10 -1 -34.5t-12.5 -49.5t-39 -44t-79.5 -19q-28 0 -52 10z" />
    <glyph glyph-name="grave.cap" unicode="&#xe300;" horiz-adv-x="240" 
d="M-10 904h91l100 -144h-59z" />
    <glyph glyph-name="acute.cap" unicode="&#xe301;" horiz-adv-x="240" 
d="M118 760h-59l100 144h91z" />
    <glyph glyph-name="circumflex.cap" unicode="&#xe302;" horiz-adv-x="240" 
d="M269 760h-66l-83 108l-83 -108h-66l109 144h80z" />
    <glyph glyph-name="caron.cap" unicode="&#xe303;" horiz-adv-x="240" 
d="M160 760h-80l-109 144h66l83 -108l83 108h66z" />
    <glyph glyph-name="tilde.cap" unicode="&#xe304;" horiz-adv-x="240" 
d="M-42 771q3 19 9.5 38t17.5 33.5t26.5 23.5t38.5 9q18 0 36.5 -7t36.5 -16l35 -15.5t32 -7.5q23 0 33.5 15.5t15.5 34.5h43q-3 -20 -9.5 -38.5t-17.5 -33t-27 -23.5t-38 -9q-18 0 -36.5 7.5l-36.5 15.5q-17 9 -34 16t-33 7q-23 0 -33.5 -15.5t-15.5 -34.5h-43z" />
    <glyph glyph-name="dieresis.cap" unicode="&#xe305;" horiz-adv-x="240" 
d="M165 822q0 20 14 35.5t37 15.5t37 -15.5t14 -35.5t-14 -35.5t-37 -15.5t-37 15.5t-14 35.5zM-27 822q0 20 14 35.5t37 15.5t37 -15.5t14 -35.5t-14 -35.5t-37 -15.5t-37 15.5t-14 35.5z" />
    <glyph glyph-name="macron.cap" unicode="&#xe306;" horiz-adv-x="240" 
d="M255 791h-270v54h270v-54z" />
    <glyph glyph-name="breve.cap" unicode="&#xe307;" horiz-adv-x="240" 
d="M267 898q-4 -63 -44.5 -97.5t-102.5 -34.5t-102.5 34.5t-44.5 97.5h44q7 -39 36 -58.5t67 -19.5t67 19.5t36 58.5h44z" />
    <glyph glyph-name="ring.cap" unicode="&#xe308;" horiz-adv-x="240" 
d="M180 835q0 25 -17.5 42t-42.5 17t-42.5 -17t-17.5 -42t17.5 -42t42.5 -17t42.5 17t17.5 42zM216 835q0 -20 -7.5 -37.5t-21 -30.5t-31 -20t-36.5 -7q-20 0 -37 7t-30.5 20t-21 30.5t-7.5 37.5t7.5 37.5t21 30t30.5 20t37 7.5q19 0 36.5 -7.5t31 -20t21 -30t7.5 -37.5z
" />
    <glyph glyph-name="hungarumlaut.cap" unicode="&#xe309;" horiz-adv-x="240" 
d="M204 760h-59l100 144h91zM3 760h-59l101 144h91z" />
    <glyph glyph-name="dotaccent.cap" unicode="&#xe30a;" horiz-adv-x="240" 
d="M69 817q0 20 14 35.5t37 15.5t37 -15.5t14 -35.5t-14 -35.5t-37 -15.5t-37 15.5t-14 35.5z" />
    <glyph glyph-name="caron.alt" unicode="&#xe30b;" horiz-adv-x="240" 
d="M143 523h-57l62 185h71z" />
    <glyph glyph-name="commaaccent" unicode="&#xe30c;" horiz-adv-x="240" 
d="M105 -230h-57l62 185h71z" />
    <glyph glyph-name="commaaccent.alt" unicode="&#xe30d;" horiz-adv-x="240" 
d="M172 749h57l-62 -185h-71z" />
    <glyph glyph-name="uniF8FF" unicode="&#xf8ff;" horiz-adv-x="512" 
d="M222 117v67h56v-67h-56zM225 234l-2 17q0 56 13 81q7 13 18 27.5t28 31.5q16 15 26 26.5t15 21t7 18t2 17.5q0 36 -22.5 60.5t-53.5 24.5t-53.5 -22t-28.5 -73l-50 8q7 72 44 104.5t91 32.5t89 -35.5t35 -95.5q0 -32 -12.5 -58.5t-50.5 -61.5q-37 -33 -43 -52
q-6 -20 -6 -72h-46zM462 50v617h-412v-617h412zM512 718v-718h-512v718h512z" />
    <glyph glyph-name="fi" unicode="&#xfb01;" horiz-adv-x="537" 
d="M465 648q0 -21 -15 -34.5t-33 -13.5t-33 13.5t-15 34.5t15 34.5t33 13.5t33 -13.5t15 -34.5zM450 0h-66v468h66v-468zM290 408h-111v-408h-66v408h-99v60h99v128q0 93 43 132.5t114 39.5q14 0 28.5 -2t28.5 -5l-12 -60q-12 3 -25 5t-26 2q-27 0 -44 -9t-26 -25.5
t-12 -38.5t-3 -47v-120h111v-60z" />
    <glyph glyph-name="fl" unicode="&#xfb02;" horiz-adv-x="537" 
d="M450 0h-66v756h66v-756zM290 408h-111v-408h-66v408h-99v60h99v128q0 93 43 132.5t114 39.5q14 0 28.5 -2t28.5 -5l-12 -60q-12 3 -25 5t-26 2q-27 0 -44 -9t-26 -25.5t-12 -38.5t-3 -47v-120h111v-60z" />
    </font>
</defs>
</svg>
